<svg xmlns="http://www.w3.org/2000/svg"><defs><font id="CartographCF-DemiBold" horiz-adv-x="1230" vert-adv-y="2000"><font-face font-family="Cartograph CF Demi Bold" font-weight="400" units-per-em="2000" panose-1="0 0 7 9 0 0 0 0 0 0" ascent="1600" descent="-400" x-height="990" cap-height="1344" bbox="-843 -706 4770 2000" underline-thickness="50" underline-position="-200" unicode-range="U+0020-FFFD"/><glyph glyph-name="w_w_w.liga" unicode="www" horiz-adv-x="3690" vert-adv-y="1980" d="M3426 990h138q32 0 24-34L3357 24q-6-24-36-24h-169q-30 0-36 24l-160 657-159-657q-6-24-36-24h-169q-32 0-36 24l-155 703-155-703q-6-24-36-24h-170q-30 0-36 24l-159 657-159-657q-6-24-36-24h-170q-30 0-36 24l-155 703-155-703q-4-24-36-24H929q-30 0-36 24L734 681 574 24q-6-24-36-24H369q-30 0-36 24L102 956q-8 34 24 34h138q30 0 36-24l169-711 171 711q6 24 36 24h116q30 0 36-24l171-711 169 711q6 24 36 24h171q30 0 36-24l169-711 171 711q6 24 36 24h116q30 0 36-24l171-711 169 711q6 24 36 24h171q30 0 36-24l169-711 171 711q6 24 36 24h116q30 0 36-24l171-711 169 711q6 24 36 24z"/><glyph glyph-name="hyphen_hyphen_greater.liga" unicode="--&gt;" horiz-adv-x="3690" vert-adv-y="1980" d="M2854 1102l121 122 565-565-565-565-121 122 365 355H150v176h3069z"/><glyph glyph-name="hyphen_greater.liga" unicode="-&gt;" horiz-adv-x="2460" vert-adv-y="1980" d="M1624 1102l121 122 565-565-565-565-121 122 365 355H150v176h1839z"/><glyph glyph-name="hyphen_greater_greater.liga" unicode="-&gt;&gt;" horiz-adv-x="3690" vert-adv-y="1980" d="M2225 1102l121 122 565-565-565-565-121 122 365 355H150v176h2440zm629 0l121 122 565-565-565-565-121 122 456 443z"/><glyph glyph-name="endash_endash_greater.liga" unicode="––&gt;" horiz-adv-x="3690" vert-adv-y="1980" d="M2854 1102l121 122 565-565-565-565-121 122 365 355H150v176h3069z"/><glyph glyph-name="endash_greater.liga" unicode="–&gt;" horiz-adv-x="2460" vert-adv-y="1980" d="M1624 1102l121 122 565-565-565-565-121 122 365 355H150v176h1839z"/><glyph glyph-name="endash_greater_greater.liga" unicode="–&gt;&gt;" horiz-adv-x="3690" vert-adv-y="1980" d="M2225 1102l121 122 565-565-565-565-121 122 365 355H150v176h2440zm629 0l121 122 565-565-565-565-121 122 456 443z"/><glyph glyph-name="period_hyphen.liga" unicode=".-" horiz-adv-x="2460" vert-adv-y="1980" d="M639 452q-86 0-146.5 60T432 659q0 86 60.5 146T639 865t146.5-60T846 659q0-87-60.5-147T639 452zm619 299h940q14 0 22-8.5t8-21.5V597q0-13-8-21.5t-22-8.5h-940q-14 0-22 8.5t-8 21.5v124q0 13 8 21.5t22 8.5z"/><glyph glyph-name="period_endash.liga" unicode=".–" horiz-adv-x="2460" vert-adv-y="1980" d="M639 452q-86 0-146.5 60T432 659q0 86 60.5 146T639 865t146.5-60T846 659q0-87-60.5-147T639 452zm619 299h940q14 0 22-8.5t8-21.5V597q0-13-8-21.5t-22-8.5h-940q-14 0-22 8.5t-8 21.5v124q0 13 8 21.5t22 8.5z"/><glyph glyph-name="period_equal.liga" unicode=".=" horiz-adv-x="2460" vert-adv-y="1980" d="M2198 792h-908q-14 0-22 8t-8 22v111q0 13 8 21.5t22 8.5h908q14 0 22-8.5t8-21.5V822q0-14-8-22t-22-8zM639 452q-86 0-146.5 60T432 659q0 86 60.5 146T639 865t146.5-60T846 659q0-87-60.5-147T639 452zm1559-98h-908q-14 0-22 8t-8 22v111q0 13 8 21.5t22 8.5h908q14 0 22-8.5t8-21.5V384q0-14-8-22t-22-8z"/><glyph glyph-name="colon_colon.liga" unicode="::" horiz-adv-x="2460" vert-adv-y="1980" d="M790 638q-79 0-133.5 54.5T602 825q0 79 54.5 133.5T790 1013q78 0 132.5-54.5T977 825q0-78-54.5-132.5T790 638zm880 0q-78 0-132.5 54.5T1483 825q0 79 54.5 133.5T1670 1013q79 0 133.5-54.5T1858 825q0-78-54.5-132.5T1670 638zM790-26q-79 0-133.5 54.5T602 162q0 78 54.5 132.5T790 349q78 0 132.5-54.5T977 162q0-79-54.5-133.5T790-26zm880 0q-78 0-132.5 54.5T1483 162q0 78 54.5 132.5T1670 349q79 0 133.5-54.5T1858 162q0-79-54.5-133.5T1670-26z"/><glyph glyph-name="colon_colon_colon.liga" unicode=":::" horiz-adv-x="3690" vert-adv-y="1980" d="M820 638q-79 0-133.5 54.5T632 825q0 79 54.5 133.5T820 1013q78 0 132.5-54.5T1007 825q0-78-54.5-132.5T820 638zm1025 0q-78 0-133 54.5T1657 825q0 79 55 133.5t133 54.5 133-54.5 55-133.5q0-78-55-132.5T1845 638zm1025 0q-78 0-132.5 54.5T2683 825q0 79 54.5 133.5T2870 1013q79 0 133.5-54.5T3058 825q0-78-54.5-132.5T2870 638zM820-26q-79 0-133.5 54.5T632 162q0 78 54.5 132.5T820 349q78 0 132.5-54.5T1007 162q0-79-54.5-133.5T820-26zm1025 0q-78 0-133 54.5T1657 162q0 78 55 132.5t133 54.5 133-54.5 55-132.5q0-79-55-133.5T1845-26zm1025 0q-78 0-132.5 54.5T2683 162q0 78 54.5 132.5T2870 349q79 0 133.5-54.5T3058 162q0-79-54.5-133.5T2870-26z"/><glyph glyph-name="semicolon_semicolon.liga" unicode=";;" horiz-adv-x="2460" vert-adv-y="1980" d="M791 638q-78 0-133 54.5T603 825q0 79 55 133.5t133 54.5 133-54.5T979 825q0-78-55-132.5T791 638zm878 0q-78 0-133 54.5T1481 825q0 79 55 133.5t133 54.5 133-54.5 55-133.5q0-78-55-132.5T1669 638zM579 191h426q13 0 21.5-8.5t8.5-21.5V87q0-279-34-454-4-23-34-23H846q-31 0-29 32 15 206 13 358H579q-13 0-21.5 8T549 30v131q0 13 8.5 21.5T579 191zm878 0h426q13 0 21.5-8.5t8.5-21.5V87q0-279-34-454-4-23-34-23h-121q-31 0-29 32 15 206 13 358h-251q-13 0-21.5 8t-8.5 22v131q0 13 8.5 21.5t21.5 8.5z"/><glyph glyph-name="exclam_equal.liga" unicode="!=" horiz-adv-x="2460" vert-adv-y="1980" d="M2299 792h-907l-114-267h1021q13 0 21.5-8.5t8.5-21.5V384q0-14-8.5-22t-21.5-8H1204L993-140q-10-24-36-24H793q-17 0-24 9t0 25l207 484H161q-13 0-21.5 8t-8.5 22v111q0 13 8.5 21.5T161 525h888l114 267H161q-13 0-21.5 8t-8.5 22v111q0 13 8.5 21.5T161 963h1075l231 540q10 23 36 23h165q16 0 22.5-10t.5-25l-226-528h834q13 0 21.5-8.5t8.5-21.5V822q0-14-8.5-22t-21.5-8z"/><glyph glyph-name="exclam_equal_equal.liga" unicode="!==" horiz-adv-x="3690" vert-adv-y="1980" d="M3529 1007H2103l-107-250h1533q13 0 21.5-8.5t8.5-21.5V615q0-13-8.5-21.5T3529 585H1922l-107-250h1714q13 0 21.5-8.5t8.5-21.5V193q0-13-8.5-21.5T3529 163H1742l-134-312q-10-24-36-24h-164q-17 0-24 9t0 25l129 302H161q-13 0-21.5 8.5T131 193v112q0 13 8.5 21.5T161 335h1426l106 250H161q-13 0-21.5 8.5T131 615v112q0 13 8.5 21.5T161 757h1606l107 250H161q-13 0-21.5 8.5T131 1037v112q0 13 8.5 21.5t21.5 8.5h1786l135 315q10 23 36 23h165q16 0 22.5-10t.5-25l-130-303h1353q13 0 21.5-8.5t8.5-21.5v-112q0-13-8.5-21.5t-21.5-8.5z"/><glyph glyph-name="asterisk_slash.liga" unicode="*/" horiz-adv-x="2460" vert-adv-y="1980" d="M1313 1114l31-123q10-45-34-57l-305-79 201-259q29-39-11-67l-110-74q-38-25-64 14L842 732 662 469q-26-39-64-14l-109 74q-41 30-11 67l200 259-305 79q-44 12-34 57l31 123q5 22 21.5 31.5t38.5 2.5l308-92-10 326q0 21 13.5 34.5T776 1430h126q22 0 35-13.5t13-34.5l-4-326 307 92q22 7 38.5-2.5t21.5-31.5zm209-1374h-164q-17 0-24 9t0 25l698 1633q10 23 36 23h165q16 0 22.5-10t.5-25L1558-236q-10-24-36-24z"/><glyph glyph-name="slash_asterisk.liga" unicode="/*" horiz-adv-x="2460" vert-adv-y="1980" d="M332-260H168q-17 0-24 9t0 25l698 1633q10 23 36 23h165q16 0 22.5-10t.5-25L368-236q-10-24-36-24zm1928 1374l31-123q10-45-34-57l-305-79 200-259q31-39-11-67l-109-74q-38-25-64 14l-180 263-179-263q-26-39-64-14l-110 74q-40 29-11 67l201 259-305 79q-44 12-34 57l31 123q5 22 21.5 31.5t38.5 2.5l307-92-9 326q0 21 13.5 34.5t34.5 13.5h126q21 0 34.5-13.5t13.5-34.5l-5-326 308 92q22 7 38.5-2.5t21.5-31.5z"/><glyph glyph-name="slash_greater.liga" unicode="/&gt;" horiz-adv-x="2460" vert-adv-y="1980" d="M1133 1226l1024-606q22-13 22-34V457q0-22-22-35L1447-3q-25-16-40 10l-67 114q-15 27 11 42l615 358-905 535L508-237q-10-23-36-23H307q-16 0-22.5 10t-.5 25l698 1631q10 24 36 24h164q17 0 24-9t0-25z"/><glyph glyph-name="slash_slash.liga" unicode="//" horiz-adv-x="2460" vert-adv-y="1980" d="M454-260H290q-17 0-24 9t0 25l698 1633q10 23 36 23h165q16 0 22.5-10t.5-25L490-236q-10-24-36-24zm1006 0h-164q-17 0-24 9t0 25l698 1633q10 23 36 23h165q16 0 22.5-10t.5-25L1496-236q-10-24-36-24z"/><glyph glyph-name="underscore_underscore.liga" unicode="__" horiz-adv-x="2460" vert-adv-y="1980" d="M2460-184H0V0h2460v-184z"/><glyph glyph-name="equal_equal.liga" unicode="==" horiz-adv-x="2460" vert-adv-y="1980" d="M2299 792H161q-13 0-21.5 8t-8.5 22v111q0 13 8.5 21.5T161 963h2138q13 0 21.5-8.5t8.5-21.5V822q0-14-8.5-22t-21.5-8zm0-438H161q-13 0-21.5 8t-8.5 22v111q0 13 8.5 21.5T161 525h2138q13 0 21.5-8.5t8.5-21.5V384q0-14-8.5-22t-21.5-8z"/><glyph glyph-name="equal_equal_equal.liga" unicode="===" horiz-adv-x="3690" vert-adv-y="1980" d="M3529 1007H161q-13 0-21.5 8.5T131 1037v112q0 13 8.5 21.5t21.5 8.5h3368q13 0 21.5-8.5t8.5-21.5v-112q0-13-8.5-21.5t-21.5-8.5zm0-422H161q-13 0-21.5 8.5T131 615v112q0 13 8.5 21.5T161 757h3368q13 0 21.5-8.5t8.5-21.5V615q0-13-8.5-21.5T3529 585zm0-422H161q-13 0-21.5 8.5T131 193v112q0 13 8.5 21.5T161 335h3368q13 0 21.5-8.5t8.5-21.5V193q0-13-8.5-21.5T3529 163z"/><glyph glyph-name="equal_equal_greater.liga" unicode="==&gt;" horiz-adv-x="3690" vert-adv-y="1980" d="M2854 1102l121 122 565-565-565-565-121 122 142 138H161q-13 0-21.5 8t-8.5 22v111q0 13 8.5 21.5T161 525h3011l138 134-137 133H161q-13 0-21.5 8t-8.5 22v111q0 13 8.5 21.5T161 963h2836z"/><glyph glyph-name="equal_greater.liga" unicode="=&gt;" horiz-adv-x="2460" vert-adv-y="1980" d="M1624 1102l121 122 565-565-565-565-121 122 142 138H161q-13 0-21.5 8t-8.5 22v111q0 13 8.5 21.5T161 525h1781l138 134-137 133H161q-13 0-21.5 8t-8.5 22v111q0 13 8.5 21.5T161 963h1606z"/><glyph glyph-name="equal_greater_greater.liga" unicode="=&gt;&gt;" horiz-adv-x="3690" vert-adv-y="1980" d="M2225 1102l121 122 565-565-565-565-121 122 142 138H161q-13 0-21.5 8t-8.5 22v111q0 13 8.5 21.5T161 525h2381l138 134-137 133H161q-13 0-21.5 8t-8.5 22v111q0 13 8.5 21.5T161 963h2207zm629 0l121 122 565-565-565-565-121 122 456 443z"/><glyph glyph-name="equal_slash_equal.liga" unicode="=/=" horiz-adv-x="3690" vert-adv-y="1980" d="M3529 1007H2103l-107-250h1533q13 0 21.5-8.5t8.5-21.5V615q0-13-8.5-21.5T3529 585H1922l-107-250h1714q13 0 21.5-8.5t8.5-21.5V193q0-13-8.5-21.5T3529 163H1742l-134-312q-10-24-36-24h-164q-17 0-24 9t0 25l129 302H161q-13 0-21.5 8.5T131 193v112q0 13 8.5 21.5T161 335h1426l106 250H161q-13 0-21.5 8.5T131 615v112q0 13 8.5 21.5T161 757h1606l107 250H161q-13 0-21.5 8.5T131 1037v112q0 13 8.5 21.5t21.5 8.5h1786l135 315q10 23 36 23h165q16 0 22.5-10t.5-25l-130-303h1353q13 0 21.5-8.5t8.5-21.5v-112q0-13-8.5-21.5t-21.5-8.5z"/><glyph glyph-name="greater_hyphen_greater.liga" unicode="&gt;-&gt;" horiz-adv-x="3690" vert-adv-y="1980" d="M2854 1102l121 122 565-565-565-565-121 122 365 355H748L271 94 150 216l456 443-456 443 121 122 477-477h2471z"/><glyph glyph-name="greater_endash_greater.liga" unicode="&gt;–&gt;" horiz-adv-x="3690" vert-adv-y="1980" d="M2854 1102l121 122 565-565-565-565-121 122 365 355H748L271 94 150 216l456 443-456 443 121 122 477-477h2471z"/><glyph glyph-name="greater_equal.liga" unicode="&gt;=" vert-adv-y="1980" d="M1015 794L305 369q-25-16-40 10l-67 114q-15 26 11 41l616 359-616 358q-12 7-15 19t4 23l67 114q15 26 40 10l710-425q22-13 22-35V829q0-22-22-35zm3-446L305-75q-25-16-40 10L198 49q-15 26 11 41l713 423q26 16 40-11l67-113q15-26-11-41z"/><glyph glyph-name="greater_equal_greater.liga" unicode="&gt;=&gt;" horiz-adv-x="3690" vert-adv-y="1980" d="M2854 1102l121 122 565-565-565-565-121 122 142 138H531L271 94 150 216l456 443-456 443 121 122 261-261h2465zM836 659L702 525h2470l138 134-137 133H703z"/><glyph glyph-name="less_hyphen.liga" unicode="&lt;-" horiz-adv-x="2460" vert-adv-y="1980" d="M471 747h1839V571H471l365-355L715 94 150 659l565 565 121-122z"/><glyph glyph-name="less_hyphen_hyphen.liga" unicode="&lt;--" horiz-adv-x="3690" vert-adv-y="1980" d="M471 747h3069V571H471l365-355L715 94 150 659l565 565 121-122z"/><glyph glyph-name="less_hyphen_greater.liga" unicode="&lt;-&gt;" horiz-adv-x="3690" vert-adv-y="1980" d="M2854 1102l121 122 565-565-565-565-121 122 365 355H471l365-355L715 94 150 659l565 565 121-122-365-355h2748z"/><glyph glyph-name="less_hyphen_less.liga" unicode="&lt;-&lt;" horiz-adv-x="3690" vert-adv-y="1980" d="M3419 1224l121-122-456-443 456-443-121-122-477 477H471l365-355L715 94 150 659l565 565 121-122-365-355h2471z"/><glyph glyph-name="less_endash.liga" unicode="&lt;–" horiz-adv-x="2460" vert-adv-y="1980" d="M471 747h1839V571H471l365-355L715 94 150 659l565 565 121-122z"/><glyph glyph-name="less_endash_endash.liga" unicode="&lt;––" horiz-adv-x="3690" vert-adv-y="1980" d="M471 747h3069V571H471l365-355L715 94 150 659l565 565 121-122z"/><glyph glyph-name="less_endash_greater.liga" unicode="&lt;–&gt;" horiz-adv-x="3690" vert-adv-y="1980" d="M2854 1102l121 122 565-565-565-565-121 122 365 355H471l365-355L715 94 150 659l565 565 121-122-365-355h2748z"/><glyph glyph-name="less_endash_less.liga" unicode="&lt;–&lt;" horiz-adv-x="3690" vert-adv-y="1980" d="M3419 1224l121-122-456-443 456-443-121-122-477 477H471l365-355L715 94 150 659l565 565 121-122-365-355h2471z"/><glyph glyph-name="less_exclam_hyphen_hyphen.liga" unicode="&lt;!--" horiz-adv-x="4920" vert-adv-y="1980" d="M1594 541l-62 656q-7 73 35 118.5t109 45.5 109-45.5 35-118.5l-60-656q-3-31-34-31h-98q-32 0-34 31zm-879 683l121-122-365-355h801V571H471l365-355L715 94 150 659zm1365-653v176h2690V571H2080zm-403-239q74 0 126-52.5t52-126.5q0-75-52-127t-126-52q-75 0-127 52t-52 127q0 74 52 126.5t127 52.5z"/><glyph glyph-name="less_exclam_endash_endash.liga" unicode="&lt;!––" horiz-adv-x="4920" vert-adv-y="1980" d="M1594 541l-62 656q-7 73 35 118.5t109 45.5 109-45.5 35-118.5l-60-656q-3-31-34-31h-98q-32 0-34 31zm-879 683l121-122-365-355h801V571H471l365-355L715 94 150 659zm1365-653v176h2690V571H2080zm-403-239q74 0 126-52.5t52-126.5q0-75-52-127t-126-52q-75 0-127 52t-52 127q0 74 52 126.5t127 52.5z"/><glyph glyph-name="less_equal.liga" unicode="&lt;=" vert-adv-y="1980" d="M925 369L215 794q-22 13-22 35v128q0 22 22 35l710 425q25 16 40-10l67-114q7-11 4-23t-15-19L405 893l616-359q26-15 11-41l-67-114q-15-26-40-10zm0-444L212 348q-26 15-11 41l67 113q14 27 40 11l713-423q26-15 11-41L965-65q-15-26-40-10z"/><glyph glyph-name="less_equal_equal.liga" unicode="&lt;==" horiz-adv-x="3690" vert-adv-y="1980" d="M3529 792H517L380 659l138-134h3011q13 0 21.5-8.5t8.5-21.5V384q0-14-8.5-22t-21.5-8H694l142-138L715 94 150 659l565 565 121-122-143-139h2836q13 0 21.5-8.5t8.5-21.5V822q0-14-8.5-22t-21.5-8z"/><glyph glyph-name="less_equal_equal_greater.liga" unicode="&lt;==&gt;" horiz-adv-x="4920" vert-adv-y="1980" d="M4084 1102l121 122 565-565-565-565-121 122 142 138H694l142-138L715 94 150 659l565 565 121-122-143-139h3534zM380 659l138-134h3884l138 134-137 133H517z"/><glyph glyph-name="less_equal_greater.liga" unicode="&lt;=&gt;" horiz-adv-x="3690" vert-adv-y="1980" d="M2854 1102l121 122 565-565-565-565-121 122 142 138H694l142-138L715 94 150 659l565 565 121-122-143-139h2304zM380 659l138-134h2654l138 134-137 133H517z"/><glyph glyph-name="less_equal_less.liga" unicode="&lt;=&lt;" horiz-adv-x="3690" vert-adv-y="1980" d="M3419 1224l121-122-456-443 456-443-121-122-260 260H694l142-138L715 94 150 659l565 565 121-122-143-139h2465zM380 659l138-134h2470l-134 134 133 133H517z"/><glyph glyph-name="less_less_hyphen.liga" unicode="&lt;&lt;-" horiz-adv-x="3690" vert-adv-y="1980" d="M715 1224l121-122-456-443 456-443L715 94 150 659zm385-477h2440V571H1100l365-355-121-122-565 565 565 565 121-122z"/><glyph glyph-name="less_less_endash.liga" unicode="&lt;&lt;–" horiz-adv-x="3690" vert-adv-y="1980" d="M715 1224l121-122-456-443 456-443L715 94 150 659zm385-477h2440V571H1100l365-355-121-122-565 565 565 565 121-122z"/><glyph glyph-name="less_less_equal.liga" unicode="&lt;&lt;=" horiz-adv-x="3690" vert-adv-y="1980" d="M720 1224l121-122-456-443 456-443L720 94 155 659zm2814-432H1152l-137-133 138-134h2381q14 0 22-8.5t8-21.5V384q0-14-8-22t-22-8H1328l142-138-121-122-565 565 565 565 121-122-143-139h2207q14 0 22-8.5t8-21.5V822q0-14-8-22t-22-8z"/><glyph glyph-name="less_slash.liga" unicode="&lt;/" horiz-adv-x="2460" vert-adv-y="1980" d="M1988 1430h165q16 0 22.5-10t.5-25L1478-236q-10-24-36-24h-164q-17 0-24 9t0 25l73 170L303 550q-22 13-22 34v129q0 22 22 35l710 425q25 16 40-10l67-114q15-27-11-42L494 649l905-535 553 1293q10 23 36 23z"/><glyph glyph-name="less_slash_greater.liga" unicode="&lt;/&gt;" horiz-adv-x="3690" vert-adv-y="1980" d="M2234 1226l1023-606q22-13 22-34V457q0-22-22-35L2547-3q-25-16-40 10l-67 114q-15 27 11 42l615 358-905 535-553-1293q-10-23-36-23h-165q-6 0-9 1-20 5-17 25l3 9 72 169L433 550q-22 13-22 34v129q0 22 22 35l710 425q25 16 40-10l67-114q15-27-11-42L624 649l905-535 553 1293q10 23 36 23h165q6 0 9-1 20-5 17-25l-3-9z"/><glyph glyph-name=".notdef" horiz-adv-x="990" vert-adv-y="1980" d="M184 1600h628V-380H184v1980zm475-198v65H333v-65h128v-73H331v-66h328v66H529v73h130zm-130-329v139H331v-206h328v67H529zm-133 72h65v-72h-65v72zm263-258v66H331v-66h130v-73H331v-65h198v138h130zm0-251v198h-65V703H331v-67h328zm0-268v224H461V481h68v46h65v-93H396v158h-65V368h328zm0-342v224H331V26h328zM396 184h198V91H396v93zM659-85v65H331v-65h138l-138-93v-65h328v65H457l139 93h63z"/><glyph glyph-name=".null" horiz-adv-x="0" vert-adv-y="0"/><glyph glyph-name="nonmarkingreturn" horiz-adv-x="666"/><glyph glyph-name="space" vert-adv-y="1980"/><glyph glyph-name="exclam" unicode="!" vert-adv-y="1980" d="M664 510h-97q-32 0-35 31l-61 656q-7 73 35 118.5t109 45.5 109-45.5 35-118.5l-60-656q-3-31-35-31zM615-26q-74 0-126 52t-52 127q0 74 52 126.5T615 332q75 0 127-52.5T794 153q0-75-52-127T615-26z"/><glyph glyph-name="quotedbl" unicode="&quot;" vert-adv-y="1980" d="M457 754H321q-30 0-30 27l-10 588q0 14 8 22.5t22 8.5h156q14 0 22-8.5t8-22.5l-10-588q0-27-30-27zm452 0H773q-30 0-30 27l-10 588q0 14 8 22.5t22 8.5h156q14 0 22-8.5t8-22.5l-10-588q0-27-30-27z"/><glyph glyph-name="numbersign" unicode="#" vert-adv-y="1980" d="M949 1035h158q14 0 22-8.5t6-21.5l-16-111q-2-13-12-21.5t-24-8.5H925l-50-354h157q14 0 22.5-8.5t6.5-21.5l-16-111q-2-13-12.5-21.5T1008 339H851L797-45q-5-30-34-30H645q-14 0-21 8.5T619-45l54 384H459L405-45q-5-30-34-30H253q-14 0-21 8.5T227-45l54 384H121q-14 0-21 8.5T95 369l16 111q5 30 34 30h160l50 354H195q-14 0-21 8.5t-5 21.5l16 111q5 30 34 30h160l54 385q5 30 34 30h118q14 0 21-8.5t5-21.5l-54-385h214l54 385q5 30 34 30h118q14 0 21-8.5t5-21.5zM483 510h214l50 354H533z"/><glyph glyph-name="dollar" unicode="$" vert-adv-y="1980" d="M1071 490q0-130-96.5-208.5T690 190V-50q0-30-30-30h-91q-30 0-30 30v240q-165 11-266.5 75T158 449q-3 30 29 30h154q23 0 30-22 26-84 192-96v265q-65 9-113 19t-102.5 32-89.5 52-58 79-23 113q0 128 91.5 206.5T539 1219v231q0 30 30 30h91q30 0 30-30v-231q154-13 251-76t110-178q3-30-29-30H868q-24 0-30 22-9 35-54.5 58.5T666 1047V784q56-7 96.5-14.5T854 748t86-35 67-51 48-73.5 16-98.5zM393 925q0-55 40.5-83T563 799v250q-170-11-170-124zm273-312V361q189 12 189 128 0 56-44.5 82.5T666 613z"/><glyph glyph-name="percent" unicode="%" vert-adv-y="1980" d="M327 870q-136 0-204.5 81.5T54 1178q0 144 68.5 225t204.5 81q137 0 205.5-81t68.5-225q0-145-68.5-226.5T327 870zm0 167q61 0 85 37t24 104-24 103.5-85 36.5q-60 0-83.5-36.5T220 1178q0-68 23.5-104.5T327 1037zM182 174l-74 73q-22 20 0 44l897 930q22 22 44 1l74-73q21-21 1-44L226 176q-21-22-44-2zM901-87Q765-87 697-5.5T629 221q0 144 68 225t204 81q137 0 206-81t69-225q0-145-69-226.5T901-87zm0 166q61 0 85 37t24 105q0 67-23.5 103T901 360q-60 0-83.5-36T794 221t23.5-104.5T901 79z"/><glyph glyph-name="ampersand" unicode="&amp;" vert-adv-y="1980" d="M564 761l604-650q20-23-1-44l-90-89q-23-23-43-2L873 149Q821 70 718.5 22T499-26Q306-26 180.5 95.5T55 400q0 128 65 230.5T296 780q-109 145-109 278 0 130 94.5 216.5T533 1361q156 0 249.5-86t93.5-225q0-31-7-64H673q4 33 4 60 0 57-39 91t-103 34q-65 0-104-36.5t-39-95.5q0-33 11.5-65.5t38-69 47.5-61 61-67.5q9-10 14-15zm429-169q-59 0-101 42t-42 101q0 58 42 100t101 42q58 0 100-42t42-100-42-100.5T993 592zM525 166q69 0 131 29t96 85L442 613l-24 26q-81-27-121-87.5T257 416q0-108 77.5-179T525 166z"/><glyph glyph-name="quotesingle" unicode="'" vert-adv-y="1980" d="M683 754H547q-30 0-30 27l-10 588q0 14 8 22.5t22 8.5h156q14 0 22-8.5t8-22.5l-10-588q0-27-30-27z"/><glyph glyph-name="parenleft" unicode="(" vert-adv-y="1980" d="M947 1535v-208q-80 0-142-15t-107.5-42-78-72-53-96.5-32-123.5-16-146-4.5-171q0-98 4.5-171.5t16-146 32-124 53-96.5 78-72.5T805 8 947-7v-208q-128 0-230 27.5t-170.5 72T428-.5 350.5 140t-43 166-20 174-4.5 181q0 78 2.5 140T296 939t22.5 134.5 39.5 123 59.5 112 84.5 92 113 72.5 147.5 45 184.5 17z"/><glyph glyph-name="parenright" unicode=")" vert-adv-y="1980" d="M283 1327v208q100 0 184.5-17t147.5-45 113-72.5 84.5-92 59.5-112 39.5-123T934 939t10.5-138 2.5-140q0-103-4.5-181t-20-174-43-166T802-.5t-118.5-115-170.5-72T283-215V-7q80 0 142 15t107.5 42.5 78 72.5 53 96.5 32 124 16 146T716 661q0 97-4.5 171t-16 146-32 123.5-53 96.5-78 72-107.5 42-142 15z"/><glyph glyph-name="asterisk" unicode="*" vert-adv-y="1980" d="M1087 877l31-123q10-45-35-57l-305-79 201-259q30-38-11-67l-109-74q-38-25-64 14L615 495 435 232q-26-39-64-14l-109 74q-41 30-11 67l201 259-305 79q-45 12-35 57l31 123q5 22 22 31.5t39 2.5l307-92-9 326q-1 21 12.5 34.5T549 1193h127q21 0 34.5-13.5T723 1145l-4-326 307 92q22 7 39-2.5t22-31.5z"/><glyph glyph-name="plus" unicode="+" vert-adv-y="1980" d="M701 744h384q13 0 21.5-8t8.5-22V603q0-13-8.5-21.5T1085 573H701V182q0-14-8.5-22t-21.5-8H559q-13 0-21.5 8t-8.5 22v391H145q-13 0-21.5 8.5T115 603v111q0 14 8.5 22t21.5 8h384v390q0 14 8.5 22t21.5 8h112q13 0 21.5-8t8.5-22V744z"/><glyph glyph-name="comma" unicode="," vert-adv-y="1980" d="M397 191h426q13 0 21.5-8.5T853 161V87q0-279-34-454-4-23-34-23H664q-31 0-29 32 15 206 13 358H397q-13 0-21.5 8T367 30v131q0 13 8.5 21.5T397 191z"/><glyph glyph-name="hyphen" unicode="-" vert-adv-y="1980" d="M145 751h940q13 0 21.5-8.5t8.5-21.5V597q0-13-8.5-21.5T1085 567H145q-13 0-21.5 8.5T115 597v124q0 13 8.5 21.5T145 751z"/><glyph glyph-name="period" unicode="." vert-adv-y="1980" d="M615-26q-78 0-133 54.5T427 162q0 78 55 132.5T615 349t133-54.5T803 162q0-79-55-133.5T615-26z"/><glyph glyph-name="slash" unicode="/" vert-adv-y="1980" d="M342-260H178q-17 0-24 9t0 25l698 1633q10 23 36 23h165q16 0 22.5-10t.5-25L378-236q-10-24-36-24z"/><glyph glyph-name="zero" unicode="0" vert-adv-y="1980" d="M615-30q-182 0-288 64.5t-157.5 216T118 666q0 263 51.5 414.5t158 215.5 287.5 64 287.5-64 158-215.5T1112 666q0-264-51.5-415.5T903 34.5 615-30zm0 214q62 0 104.5 10.5t79 40.5 57 84 32 139T899 666q0 152-16 247.5T829 1060t-87 68.5-127 17.5-127-17.5-87-68.5-54-146.5T331 666q0-123 11.5-208t32-139 57-84 79-40.5T615 184zm-25 316H469l173 330h121z"/><glyph glyph-name="one" unicode="1" vert-adv-y="1980" d="M786 191h273q13 0 21.5-8.5t8.5-21.5V30q0-14-8.5-22T1059 0H181q-13 0-21.5 8T151 30v131q0 13 8.5 21.5T181 191h383v939q-50-118-145.5-163.5T171 921q-30 0-30 29v141q0 32 30 32 119 0 222 52.5T564 1340h192q14 0 22-8t8-22V191z"/><glyph glyph-name="two" unicode="2" vert-adv-y="1980" d="M1037 0H168q-14 0-22 8t-8 22v123q0 92 24.5 167t66 126.5T324 540t113.5 72 119 57.5 113.5 55 95.5 59 66 76T856 959q0 89-63 145t-189 56q-118 0-185-55t-72-165q-1-29-33-29H165q-13 0-21 9t-8 24q0 198 124.5 307T607 1360q216 0 337.5-103.5T1066 970q0-79-24-144t-64.5-110-93-82T774 568t-116-56.5-110.5-58-93-65.5-64.5-85-24-112h671q13 0 21.5-8.5t8.5-21.5V30q0-14-8.5-22T1037 0z"/><glyph glyph-name="three" unicode="3" vert-adv-y="1980" d="M606-30Q375-30 248.5 76T122 378q0 31 28 31h150q32 0 33-29 3-101 75-156t197-55q131 0 207 58t76 158q0 103-89 163.5T523 609q-30 0-30 30v110q0 31 31 31 92 0 158.5 17.5T784 845t50.5 63 15.5 71q0 85-68.5 133.5T603 1161q-115 0-184.5-54.5T346 954q0-29-33-29H164q-13 0-21 9.5t-8 23.5q0 192 125 297t345 105q207 0 333-93t126-254q0-104-56-179.5T847 717v-20q128-39 201-122.5t73-212.5q0-181-141-286.5T606-30z"/><glyph glyph-name="four" unicode="4" vert-adv-y="1980" d="M970 495h143q13 0 21.5-8.5t8.5-21.5V341q0-13-8.5-21.5T1113 311H970V30q0-14-8-22t-22-8H778q-14 0-22 8t-8 22v281H131q-13 0-21.5 8.5T101 341v137q0 21 12 37l623 805q16 20 36 20h168q14 0 22-8t8-22V495zm-629 0h407v524z"/><glyph glyph-name="five" unicode="5" vert-adv-y="1980" d="M606-30q-205 0-330 92.5T132 337q-3 31 28 31h147q25 0 31-28 46-178 271-178 146 0 220 71.5T903 438q0 136-74 209t-204 73q-89 0-154-33.5T375 597q-12-22-43-11l-141 52q-25 9-20 36l120 640q5 26 32 26h654q13 0 21.5-8t8.5-22v-131q0-13-8.5-21.5T977 1149H462l-62-333h22q86 92 263 92 201 0 317-123.5T1118 447q0-227-134.5-352T606-30z"/><glyph glyph-name="six" unicode="6" vert-adv-y="1980" d="M624-30Q384-30 257 94.5T129 442l-2 443q-1 236 136.5 355.5T637 1360q261 0 400-153 15-16 1-35l-75-98q-16-21-35-3-111 90-269 90-65 0-119-14t-100-45-72-87.5T342 880V728h16q29 67 113 104.5T673 870q211 0 330.5-121T1123 425q0-210-130.5-332.5T624-30zm1 195q132 0 207.5 67T908 425t-75.5 191.5T625 682t-207.5-65.5T342 425t75.5-193T625 165z"/><glyph glyph-name="seven" unicode="7" vert-adv-y="1980" d="M184 1340h898q14 0 22-8t8-22v-140q0-22-8-38L556 31Q540 0 518 0H352q-14 0-21 9t-1 22l559 1118H358v-147q0-14-8-22t-22-8H184q-14 0-22 8t-8 22v308q0 14 8 22t22 8z"/><glyph glyph-name="eight" unicode="8" vert-adv-y="1980" d="M615-30Q371-30 239 80T107 376q0 126 62.5 219T356 728v25q-79 34-119.5 106.5T196 1022q0 149 110 243.5t309 94.5 309-94.5 110-243.5q0-90-40.5-162.5T874 753v-25q124-40 186.5-133t62.5-219q0-186-132-296T615-30zm0 843q103 0 159 46.5T830 994q0 89-56.5 136T615 1177t-158.5-47T400 994q0-88 56-134.5T615 813zm0-651q133 0 213 62t80 178q0 117-80 179t-213 62-213-62-80-179q0-116 80-178t213-62z"/><glyph glyph-name="nine" unicode="9" vert-adv-y="1980" d="M606 1360q240 0 367-124.5T1101 888l2-443q1-236-136.5-355.5T593-30q-261 0-400 153-15 16-1 35l75 98q16 21 35 3 111-90 269-90 65 0 119 14t100 45 72 87.5T888 450v152h-16q-29-67-113-104.5T557 460q-211 0-330.5 121T107 905q0 210 130.5 332.5T606 1360zm-1-195q-132 0-207.5-67T322 905t75.5-191.5T605 648t207.5 65.5T888 905t-75.5 193-207.5 67z"/><glyph glyph-name="colon" unicode=":" vert-adv-y="1980" d="M615 638q-78 0-133 54.5T427 825q0 79 55 133.5t133 54.5 133-54.5T803 825q0-78-55-132.5T615 638zm0-664q-78 0-133 54.5T427 162q0 78 55 132.5T615 349t133-54.5T803 162q0-79-55-133.5T615-26z"/><glyph glyph-name="semicolon" unicode=";" vert-adv-y="1980" d="M615 638q-78 0-133 54.5T427 825q0 79 55 133.5t133 54.5 133-54.5T803 825q0-78-55-132.5T615 638zM403 191h426q13 0 21.5-8.5T859 161V87q0-279-34-454-4-23-34-23H670q-31 0-29 32 15 206 13 358H403q-13 0-21.5 8T373 30v131q0 13 8.5 21.5T403 191z"/><glyph glyph-name="less" unicode="&lt;" vert-adv-y="1980" d="M925 136L215 560q-22 13-22 35v129q0 22 22 35l710 425q26 16 40-11l67-113q15-27-11-42L405 660l616-360q27-15 11-40l-67-114q-15-26-40-10z"/><glyph glyph-name="equal" unicode="=" vert-adv-y="1980" d="M1069 792H161q-13 0-21.5 8t-8.5 22v111q0 13 8.5 21.5T161 963h908q13 0 21.5-8.5t8.5-21.5V822q0-14-8.5-22t-21.5-8zm0-438H161q-13 0-21.5 8t-8.5 22v111q0 13 8.5 21.5T161 525h908q13 0 21.5-8.5t8.5-21.5V384q0-14-8.5-22t-21.5-8z"/><glyph glyph-name="greater" unicode="&gt;" vert-adv-y="1980" d="M1015 560L305 136q-25-16-40 10l-67 114q-16 25 11 40l616 360-616 358q-26 15-11 42l67 113q14 27 40 11l710-425q22-13 22-35V595q0-22-22-35z"/><glyph glyph-name="question" unicode="?" vert-adv-y="1980" d="M670 431H513q-30 0-30 32 0 81 21.5 141t56 95 76 61 83 45.5 76 40.5 56 55.5T873 983q0 81-62.5 129T622 1160t-195.5-52.5T354 947q-1-28-32-28H173q-29 0-29 32 0 198 124.5 304T618 1361q219 0 343.5-98.5T1086 984q0-71-21-124.5t-54.5-85.5-74-57-81.5-47.5-75-48-56-66-23-94.5q-1-30-31-30zM597-26q-74 0-126.5 52T418 153q0 74 52.5 126.5T597 332t126.5-52.5T776 153q0-75-52.5-127T597-26z"/><glyph glyph-name="at" unicode="@" vert-adv-y="1980" d="M624 1410q499 0 499-507V502q0-144-83-219t-210-75q-295 0-295 294v331q0 148 94.5 235.5T876 1148q-39 50-101 70t-151 20q-80 0-138-16t-105-55.5-70.5-113.5T287 870V284q0-106 27-176T398.5.5t131-52T712-66q162 0 289 27v-163q-134-35-306-35-147 0-253.5 26t-183 84.5-114 156T107 267v621q0 522 517 522zm319-889v358q0 82-12 142-102 14-159-37.5T715 818V521q0-69 25-107t90-38q57 0 85 40t28 105z"/><glyph glyph-name="A" unicode="A" vert-adv-y="1980" d="M793 1316L1159 34q9-34-24-34H964q-29 0-34 24l-69 252H369L300 24q-5-24-34-24H95Q62 0 71 34l366 1282q7 24 35 24h286q28 0 35-24zm-198-214L423 475h384l-172 627h-40z"/><glyph glyph-name="B" unicode="B" vert-adv-y="1980" d="M632 0H158q-14 0-22 8t-8 22v1280q0 14 8 22t22 8h490q109 0 189.5-26.5t125-73.5 65.5-103 21-123q0-105-52-180.5T830 733v-20q290-45 290-340 0-186-116-279.5T632 0zM358 1134V806h269q107 0 155.5 44T831 980q0 82-47.5 118T627 1134H358zm0-521V206h276q135 0 194.5 46T888 402q0 103-60 157t-194 54H358z"/><glyph glyph-name="C" unicode="C" vert-adv-y="1980" d="M633-30q-272 0-396 161.5T113 665q0 373 124 534t396 161q108 0 189-24t145.5-78.5 101.5-151 44-234.5q2-33-27-33H930q-28 0-31 26-10 84-33 139.5t-59.5 84-77 39.5-96.5 11q-59 0-102-11.5t-81-43-62-84T350.5 864 337 665t13.5-199T388 329.5t62-84 81-43T633 191q116 0 181.5 47T899 408q3 26 31 26h156q29 0 27-33-7-117-44-201.5t-101-134T821.5-7 633-30z"/><glyph glyph-name="D" unicode="D" vert-adv-y="1980" d="M559 0H163q-13 0-21.5 8T133 30v1280q0 14 8.5 22t21.5 8h396q132 0 232-32.5t164.5-89.5 105-142.5T1117 892t16-222-16-222-56.5-183.5-105-142.5T791 32.5 559 0zM363 1134V206h188q86 0 148 21t100.5 58 61 97T891 509.5t8 160.5-8 160.5T860.5 958t-61 97-100.5 58-148 21H363z"/><glyph glyph-name="E" unicode="E" vert-adv-y="1980" d="M1041 0H189q-13 0-21.5 8T159 30v1280q0 14 8.5 22t21.5 8h850q13 0 21.5-8t8.5-22v-146q0-14-8.5-22t-21.5-8H389V781h605q14 0 22-8.5t8-21.5V605q0-13-8-21.5t-22-8.5H389V206h652q13 0 21.5-8t8.5-22V30q0-14-8.5-22T1041 0z"/><glyph glyph-name="F" unicode="F" vert-adv-y="1980" d="M355 0H185q-13 0-21.5 8T155 30v1280q0 14 8.5 22t21.5 8h860q13 0 21.5-8t8.5-22v-146q0-14-8.5-22t-21.5-8H385V692h614q13 0 21.5-8t8.5-22V516q0-14-8.5-22t-21.5-8H385V30q0-14-8.5-22T355 0z"/><glyph glyph-name="G" unicode="G" vert-adv-y="1980" d="M1097 711q13 0 21.5-8.5t8.5-21.5V536q0-296-117.5-431T635-30q-273 0-397.5 161.5T113 665q0 373 124 534t396 161q108 0 189-22.5t145.5-74T1069 1122t44-219q2-33-28-33H930q-29 0-33 26-17 139-83.5 191T633 1139q-59 0-102-11.5t-81-43-62-84T350.5 864 337 665q0-143 19.5-238t61-146 93.5-70.5T640 191q70 0 117.5 14.5T841 257t52.5 103T910 525v4H601q-13 0-21.5 8.5T571 559v122q0 13 8.5 21.5T601 711h496z"/><glyph glyph-name="H" unicode="H" vert-adv-y="1980" d="M887 1340h170q13 0 21.5-8t8.5-22V30q0-14-8.5-22T1057 0H887q-13 0-21.5 8T857 30v528H373V30q0-14-8.5-22T343 0H173q-13 0-21.5 8T143 30v1280q0 14 8.5 22t21.5 8h170q13 0 21.5-8t8.5-22V764h484v546q0 14 8.5 22t21.5 8z"/><glyph glyph-name="I" unicode="I" vert-adv-y="1980" d="M1068 0H162q-14 0-22 8t-8 22v146q0 14 8 22t22 8h338v928H162q-14 0-22 8t-8 22v146q0 14 8 22t22 8h906q14 0 22-8t8-22v-146q0-14-8-22t-22-8H730V206h338q14 0 22-8t8-22V30q0-14-8-22t-22-8z"/><glyph glyph-name="J" unicode="J" vert-adv-y="1980" d="M1068 1340q14 0 22-8t8-22V498q0-258-136.5-393T593-30Q368-30 235 98T102 476q0 30 30 30h166q30 0 30-30 4-141 75.5-213T598 191q129 0 199.5 77.5T868 506v628H313q-13 0-21.5 8t-8.5 22v146q0 14 8.5 22t21.5 8h755z"/><glyph glyph-name="K" unicode="K" vert-adv-y="1980" d="M650 728l499-692q11-15 5.5-25.5T1131 0H941q-23 0-36 18L513 559 349 358V30q0-14-8.5-22T319 0H149q-13 0-21.5 8T119 30v1280q0 14 8.5 22t21.5 8h170q13 0 21.5-8t8.5-22V675l509 649q12 16 36 16h208q19 0 23.5-11t-7.5-25z"/><glyph glyph-name="L" unicode="L" vert-adv-y="1980" d="M1056 0H204q-14 0-22 8t-8 22v1280q0 14 8 22t22 8h170q14 0 22-8t8-22V206h652q14 0 22-8t8-22V30q0-14-8-22t-22-8z"/><glyph glyph-name="M" unicode="M" vert-adv-y="1980" d="M291 0H158q-14 0-22 8t-8 22v1280q0 14 8 22t22 8h186q30 0 36-20l229-964h12l229 964q6 20 36 20h186q14 0 22-8t8-22V30q0-14-8-22t-22-8H939q-13 0-21.5 8T909 30v838h-13L708 123q-6-23-35-23H557q-29 0-35 23L334 868h-13V30q0-14-8.5-22T291 0z"/><glyph glyph-name="N" unicode="N" vert-adv-y="1980" d="M900 1340h149q13 0 21.5-8t8.5-22V30q0-14-8.5-22T1049 0H847q-26 0-36 20L360 990V30q0-14-8-22t-22-8H181q-13 0-21.5 8T151 30v1280q0 14 8.5 22t21.5 8h202q27 0 36-20l451-968v958q0 14 8 22t22 8z"/><glyph glyph-name="O" unicode="O" vert-adv-y="1980" d="M615-30q-259 0-380.5 162T113 665q0 250 55.5 404T333 1291.5t282 68.5 282-68.5 164.5-222.5 55.5-404q0-371-121.5-533T615-30zm0 221q53 0 93.5 12t76.5 43 59 83.5 36 137T893 665t-13 198.5-36 137-59 83.5-76.5 43-93.5 12-93.5-12-76.5-43-59-83.5-36-137T337 665t13-198.5 36-137 59-83.5 76.5-43 93.5-12z"/><glyph glyph-name="P" unicode="P" vert-adv-y="1980" d="M177 1340h463q476 0 476-444T640 452H377V30q0-14-8.5-22T347 0H177q-13 0-21.5 8T147 30v1280q0 14 8.5 22t21.5 8zm200-682h247q134 0 202 54t68 184-67.5 184-202.5 54H377V658z"/><glyph glyph-name="Q" unicode="Q" vert-adv-y="1980" d="M615-30q-259 0-380.5 162T113 665q0 250 55.5 404T333 1291.5t282 68.5 282-68.5 164.5-222.5 55.5-404q0-371-121.5-533T615-30zm0 221q53 0 93.5 12t76.5 43 59 83.5 36 137T893 665t-13 198.5-36 137-59 83.5-76.5 43-93.5 12-93.5-12-76.5-43-59-83.5-36-137T337 665t13-198.5 36-137 59-83.5 76.5-43 93.5-12zm462-550q-71-2-136 12.5t-107.5 33T726-279t-135 16q-32 0-32 28v124q0 31 32 32 71 1 135.5-14T833-126t106.5-33.5T1075-175q32 0 32-28v-124q0-31-30-32z"/><glyph glyph-name="R" unicode="R" vert-adv-y="1980" d="M874 487l234-452q8-16 1.5-25.5T1086 0H916q-24 0-35 23L660 452H382V30q0-14-8-22t-22-8H182q-14 0-22 8t-8 22v1280q0 14 8 22t22 8h463q476 0 476-444 0-319-247-409zm-245 647H382V658h247q134 0 202 54t68 184-67.5 184-202.5 54z"/><glyph glyph-name="S" unicode="S" vert-adv-y="1980" d="M608-30q-463 0-493 380-2 15 6.5 25.5T143 386h160q25 0 29-30 14-86 86.5-133.5T618 175q123 0 197 46.5T889 367q0 86-65 133t-231 84q-78 17-138.5 37.5t-121 53.5-100 75-64 103T145 990q0 170 120 270t351 100q429 0 462-363 1-15-6.5-23.5T1050 965H902q-24 0-29 26-12 77-79.5 121T610 1156q-115 0-178.5-44T368 983q0-75 61.5-124.5T648 774q61-14 104-25t96-30 88.5-39.5 72-51 58-67.5 35-87 13.5-110q0-189-130-291.5T608-30z"/><glyph glyph-name="T" unicode="T" vert-adv-y="1980" d="M700 0H530q-14 0-22 8t-8 22v1104H130q-14 0-22 8t-8 22v146q0 14 8 22t22 8h970q14 0 22-8t8-22v-146q0-14-8-22t-22-8H730V30q0-14-8-22t-22-8z"/><glyph glyph-name="U" unicode="U" vert-adv-y="1980" d="M615-30Q383-30 258 90.5T133 447v863q0 14 8.5 22t21.5 8h170q13 0 21.5-8t8.5-22V466q0-131 64-203t188-72 188 72 64 203v844q0 14 8.5 22t21.5 8h170q13 0 21.5-8t8.5-22V447q0-236-125-356.5T615-30z"/><glyph glyph-name="V" unicode="V" vert-adv-y="1980" d="M758 0H472q-28 0-35 24L66 1306q-8 34 24 34h171q29 0 34-24L595 238h40l300 1078q5 24 34 24h171q32 0 24-34L793 24q-7-24-35-24z"/><glyph glyph-name="W" unicode="W" vert-adv-y="1980" d="M982 1340h155q27 0 24-34L1000 24q-1-11-12.5-17.5T963 0H764q-30 0-35 24L615 752 501 24q-5-24-35-24H267q-13 0-24.5 6.5T230 24L69 1306q-3 34 24 34h155q31 0 34-24L388 297l149 899q4 24 34 24h88q30 0 34-24l149-899 106 1019q3 24 34 24z"/><glyph glyph-name="X" unicode="X" vert-adv-y="1980" d="M738 682l402-646q10-16 4-26t-24-10H940q-25 0-36 20L615 484 326 20Q315 0 290 0H110Q92 0 86 10t4 26l402 646-387 622q-10 16-4 26t24 10h180q25 0 36-20l274-440 274 440q11 20 36 20h180q18 0 24-10t-4-26z"/><glyph glyph-name="Y" unicode="Y" vert-adv-y="1980" d="M956 1340h180q18 0 23.5-10t-3.5-26L730 518V30q0-14-8-22t-22-8H530q-14 0-22 8t-8 22v490L74 1304q-9 16-3.5 26t23.5 10h180q26 0 36-20l305-582 305 582q10 20 36 20z"/><glyph glyph-name="Z" unicode="Z" vert-adv-y="1980" d="M1071 0H159q-13 0-21.5 8T129 30v156q0 20 12 36l687 912H179q-13 0-21.5 8t-8.5 22v146q0 14 8.5 22t21.5 8h872q13 0 21.5-8t8.5-22v-156q0-20-12-36L382 206h689q13 0 21.5-8t8.5-22V30q0-14-8.5-22T1071 0z"/><glyph glyph-name="bracketleft" unicode="[" vert-adv-y="1980" d="M905-216H325q-13 0-21.5 8t-8.5 22v1690q0 14 8.5 22t21.5 8h580q13 0 21.5-8t8.5-22v-124q0-14-8.5-22t-21.5-8H525V-32h380q13 0 21.5-8t8.5-22v-124q0-14-8.5-22t-21.5-8z"/><glyph glyph-name="backslash" unicode="\" vert-adv-y="1980" d="M1052-260H888q-26 0-36 24L154 1395q-6 15 .5 25t22.5 10h165q26 0 36-23l698-1633q7-16 0-25t-24-9z"/><glyph glyph-name="bracketright" unicode="]" vert-adv-y="1980" d="M905-216H325q-13 0-21.5 8t-8.5 22v124q0 14 8.5 22t21.5 8h380v1382H325q-13 0-21.5 8t-8.5 22v124q0 14 8.5 22t21.5 8h580q13 0 21.5-8t8.5-22V-186q0-14-8.5-22t-21.5-8z"/><glyph glyph-name="asciicircum" unicode="^" vert-adv-y="1980" d="M1056 577H905q-25 0-35 24l-255 592-255-592q-10-24-35-24H174q-17 0-24 9.5t0 25.5l340 766q9 22 35 22h180q26 0 35-22l340-766q7-16 0-25.5t-24-9.5z"/><glyph glyph-name="underscore" unicode="_" vert-adv-y="1980" d="M145 0h940q13 0 21.5-8t8.5-22v-124q0-14-8.5-22t-21.5-8H145q-13 0-21.5 8t-8.5 22v124q0 14 8.5 22T145 0z"/><glyph glyph-name="grave" unicode="`" vert-adv-y="1980" d="M749 1185H611q-23 0-34 24l-120 252q-7 16 0 25t24 9h138q23 0 34-24l120-252q7-16 0-25t-24-9z"/><glyph glyph-name="a" unicode="a" vert-adv-y="1980" d="M1083 152q22-14 30.5-26.5T1122 89V60q0-75-104-75-72 0-119 44.5T852 156v29h-11Q809 94 719 34.5T491-25h-49q-151 0-235.5 77.5T122 268q0 127 76 201.5T429 554l399 26v60q0 107-48.5 148T605 829q-106 0-159.5-27.5T384 708q-3-22-28-22H202q-30 0-29 30 10 294 437 294 123 0 208-24t134.5-73 71-116 21.5-161V269q0-56 8.5-79.5T1083 152zm-567-4h31q73 0 134 21t104 71.5T828 365v71l-342-25q-147-11-147-129 0-134 177-134z"/><glyph glyph-name="b" unicode="b" vert-adv-y="1980" d="M661 1010q219 0 348.5-145.5T1139 489q0-223-119.5-368.5T703-25q-123 0-208.5 58.5T373 187h-24L337 30q-3-30-30-30H165q-13 0-21.5 8T135 30v1340q0 14 8.5 22t21.5 8h162q13 0 21.5-8t8.5-22V879q102 131 304 131zm-27-830q131 0 210 85t79 228-79 227.5T634 805t-209.5-84.5T346 493t78.5-228T634 180z"/><glyph glyph-name="c" unicode="c" vert-adv-y="1980" d="M651 181q159 0 253 124 19 22 40 7l112-76q26-19 9-41-65-102-174.5-161T644-25q-222 0-368.5 147T129 493t146.5 370.5T644 1010q138 0 247-59t174-161q17-23-10-41l-111-76q-21-15-40 7-94 124-253 124-133 0-219.5-86.5T345 493t86.5-225T651 181z"/><glyph glyph-name="d" unicode="d" vert-adv-y="1980" d="M903 1400h162q13 0 21.5-8t8.5-22V30q0-14-8.5-22T1065 0H923q-27 0-30 30l-12 157h-24Q821 92 735.5 33.5T527-25q-197 0-316.5 145.5T91 489q0 230 129.5 375.5T569 1010q202 0 304-131v491q0 14 8.5 22t21.5 8zM596 180q131 0 209.5 85T884 493t-78.5 227.5T596 805t-210-84.5T307 493t79-228 210-85z"/><glyph glyph-name="e" unicode="e" vert-adv-y="1980" d="M1105 529q0-51-16.5-72.5T1020 435H338q7-132 97-206t240-74q139 0 246 63 22 13 38 8t40-35q27-33 29.5-52.5T1007 96Q950 40 856.5 7.5T652-25q-238 0-382.5 143.5T125 495q0 230 139.5 372.5T630 1010q221 0 348-134.5T1105 529zM630 820q-116-1-190.5-60.5T345 589h563q-12 112-85.5 172.5T630 820z"/><glyph glyph-name="f" unicode="f" vert-adv-y="1980" d="M1074 1435q20-8 20-29v-122q0-31-34-27-4 1-27 4.5t-40.5 6-48.5 5-60 2.5q-62 0-106-10.5t-81-37.5-55.5-79-18.5-130v-38h424q13 0 21.5-8t8.5-22V828q0-14-8.5-22t-21.5-8H623V30q0-14-8.5-22T593 0H431q-13 0-21.5 8T401 30v768H179q-13 0-21.5 8t-8.5 22v122q0 14 8.5 22t21.5 8h222v67q0 97 24.5 172t65 121.5 98 75.5 118 40.5T837 1468q142 0 237-33z"/><glyph glyph-name="g" unicode="g" vert-adv-y="1980" d="M922 990h148q14 0 22-8t8-22V56q0-105-32-186.5T985-261t-122.5-80.5-142.5-43T569-396q-229 0-359 83-22 12-12 39l37 107q9 26 38 16 123-56 275-56 56 0 102.5 6.5t92.5 25 77.5 48 51 79T891 67v181h-29q-31-91-118-144T538 51q-191 0-311.5 134T106 522q0 212 127.5 350T561 1010q208 0 326-159l5 109q3 30 30 30zM602 242q123 0 201.5 79.5T882 526q0 124-78.5 202T602 806t-201-78-78-202q0-125 78-204.5T602 242z"/><glyph glyph-name="h" unicode="h" vert-adv-y="1980" d="M713 1010q162 0 263-110.5T1077 596V30q0-14-8.5-22T1047 0H885q-13 0-21.5 8T855 30v525q0 115-63.5 182.5T616 805t-176.5-68T375 555V30q0-14-8.5-22T345 0H183q-13 0-21.5 8T153 30v1340q0 14 8.5 22t21.5 8h162q13 0 21.5-8t8.5-22V818h28q39 86 119 139t191 53z"/><glyph glyph-name="i" unicode="i" vert-adv-y="1980" d="M604 1237q-59 0-100.5 41T462 1378t41.5 100.5T604 1520t100-41.5 41-100.5-41-100-100-41zM883 186h161q14 0 22-8t8-22V30q0-14-8-22t-22-8H801Q661 0 586.5 78.5T512 299v505H191q-13 0-21.5 8t-8.5 22v126q0 14 8.5 22t21.5 8h513q14 0 22-8t8-22V336q0-150 149-150z"/><glyph glyph-name="j" unicode="j" vert-adv-y="1980" d="M802 1237q-59 0-100.5 41T660 1378t41.5 100.5T802 1520t100-41.5 41-100.5-41-100-100-41zM493-385q-64 0-124 13t-102.5 33-72.5 42.5-41 44-3 35.5l64 104q16 25 46 6 106-72 216-72 45 0 83.5 11t74 37.5 56 77.5T710 70v734H261q-13 0-21.5 8t-8.5 22v126q0 14 8.5 22t21.5 8h641q14 0 22-8t8-22V47q0-98-28-175.5T832.5-253t-103-78T612-373.5 493-385z"/><glyph glyph-name="k" unicode="k" vert-adv-y="1980" d="M687 556l424-520q12-15 6-25.5T1093 0H904q-19 0-36 18L550 408 393 240V30q0-14-8.5-22T363 0H201q-13 0-21.5 8T171 30v1340q0 14 8.5 22t21.5 8h162q13 0 21.5-8t8.5-22V516l413 458q15 16 37 16h200q20 0 24.5-10.5T1059 954z"/><glyph glyph-name="l" unicode="l" vert-adv-y="1980" d="M1066 0H814Q670 0 587.5 86T505 319v895H159q-13 0-21.5 8t-8.5 22v126q0 14 8.5 22t21.5 8h538q13 0 21.5-8t8.5-22V350q0-76 43.5-120T890 186h176q14 0 22-8t8-22V30q0-14-8-22t-22-8z"/><glyph glyph-name="m" unicode="m" vert-adv-y="1980" d="M271 0H128q-14 0-22 8t-8 22v930q0 14 8 22t22 8h138q28 0 30-30l5-103h16q42 153 193 153 71 0 118-36.5T700 857h13q46 153 199 153 220 0 220-302V30q0-14-8-22t-22-8H959q-13 0-21.5 8T929 30v646q0 62-28.5 96T819 806t-81.5-34-28.5-96V30q0-14-8.5-22T679 0H551q-13 0-21.5 8T521 30v646q0 62-28.5 96T411 806t-81.5-34-28.5-96V30q0-14-8.5-22T271 0z"/><glyph glyph-name="n" unicode="n" vert-adv-y="1980" d="M713 1010q162 0 263-110.5T1077 596V30q0-14-8.5-22T1047 0H885q-13 0-21.5 8T855 30v525q0 115-63.5 182.5T616 805t-176.5-68T375 555V30q0-14-8.5-22T345 0H183q-13 0-21.5 8T153 30v930q0 14 8.5 22t21.5 8h154q28 0 30-30l8-142h28q39 86 119 139t191 53z"/><glyph glyph-name="o" unicode="o" vert-adv-y="1980" d="M615-25q-220 0-363.5 148T108 493t143.5 369.5T615 1010t363.5-147.5T1122 493 978.5 123 615-25zm0 206q128 0 209.5 86.5T906 493t-81.5 225T615 804t-209.5-86T324 493t81.5-225.5T615 181z"/><glyph glyph-name="p" unicode="p" vert-adv-y="1980" d="M678 1010q206 0 327.5-145T1127 493t-121.5-372.5T678-25q-114 0-191.5 46T369 144h-24v-494q0-14-8.5-22t-21.5-8H159q-13 0-21.5 8t-8.5 22V960q0 14 8.5 22t21.5 8h162q13 0 21.5-8t8.5-22V848h18q40 73 117.5 117.5T678 1010zm-52-830q131 0 208.5 85T912 493t-77.5 227.5T626 805t-208.5-84.5T340 493q0-142 77.5-227.5T626 180z"/><glyph glyph-name="q" unicode="q" vert-adv-y="1980" d="M909 990h162q13 0 21.5-8t8.5-22V-350q0-14-8.5-22t-21.5-8H915q-13 0-21.5 8t-8.5 22v494h-24Q821 67 743.5 21T552-25q-206 0-327.5 145.5T103 493t121.5 372T552 1010q114 0 191.5-44.5T861 848h18v112q0 14 8.5 22t21.5 8zM604 180q131 0 208.5 85.5T890 493q0 143-77.5 227.5T604 805t-208.5-84.5T318 493t77.5-228T604 180z"/><glyph glyph-name="r" unicode="r" vert-adv-y="1980" d="M762 1010q158 0 255.5-97t97.5-245q0-64-20.5-91t-60.5-27h-93q-40 0-41 37-2 60-22 103.5t-53 68-71 35.5-84 11q-126 0-199-80.5T398 491V30q0-14-8-22t-22-8H206q-14 0-22 8t-8 22v930q0 14 8 22t22 8h154q27 0 30-30l8-166h31q38 100 125.5 158t207.5 58z"/><glyph glyph-name="s" unicode="s" vert-adv-y="1980" d="M630 577q42-5 67-8.5t67-11 68-15 62-20.5 58.5-28 47.5-36.5 39-47 23.5-59.5 9.5-73q0-143-116-223T615-25q-197 0-320 64.5T158 237q-1 14 7.5 22t22.5 8h153q24 0 31-22 29-98 246-98 237 0 237 130 0 64-58.5 90T599 410q-50 6-85.5 11.5t-83 17T350 464t-68 36.5-56.5 50.5-35 68.5T177 709q0 141 110 221t323 80q186 0 306.5-63.5T1051 753q3-30-29-30H869q-25 0-31 22-10 43-74 68t-160 25q-211 0-211-125 0-64 55-92.5T630 577z"/><glyph glyph-name="t" unicode="t" vert-adv-y="1980" d="M1093 237q37-37 41.5-60.5T1120 130q-14-20-41-43.5t-70-50-107-44T767-25q-54 0-103.5 10t-101 37-89 69.5T412 205t-24 162v429H112q-14 0-22 8t-8 22v124q0 14 8 22t22 8h276v280q0 14 8 22t22 8h162q14 0 22-8t8-22V980h437q13 0 21.5-8t8.5-22V826q0-14-8.5-22t-21.5-8H610V402q0-66 17-112.5t47-70.5 62.5-34 71.5-10q109 0 203 81 17 18 34.5 14.5T1093 237z"/><glyph glyph-name="u" unicode="u" vert-adv-y="1980" d="M885 990h162q13 0 21.5-8t8.5-22V30q0-14-8.5-22T1047 0H893q-28 0-30 30l-8 142h-28Q788 86 708 33T517-20Q355-20 254 90.5T153 394v566q0 14 8.5 22t21.5 8h162q13 0 21.5-8t8.5-22V435q0-115 63.5-182.5T614 185t176.5 68T855 435v525q0 14 8.5 22t21.5 8z"/><glyph glyph-name="v" unicode="v" vert-adv-y="1980" d="M615 250l284 716q9 24 36 24h162q17 0 24-9t0-25L736 24q-9-24-36-24H530q-27 0-36 24L109 956q-7 16 0 25t24 9h162q27 0 36-24z"/><glyph glyph-name="w" unicode="w" vert-adv-y="1980" d="M999 990h138q30 0 24-34L980 24q-5-24-36-24H780q-30 0-36 24L615 667 486 24q-6-24-36-24H286q-32 0-36 24L69 956q-6 34 24 34h138q31 0 36-24l113-711 147 701q5 24 36 24h104q31 0 36-24l147-701 113 711q5 24 36 24z"/><glyph glyph-name="x" unicode="x" vert-adv-y="1980" d="M743 511l396-475q12-14 6.5-25T1121 0H931q-23 0-36 17L615 357 335 17Q321 0 299 0H109Q90 0 84.5 11T91 36l398 475-370 443q-12 14-6.5 25t24.5 11h188q23 0 36-17l254-310 253 310q14 17 36 17h189q18 0 24-10.5t-6-25.5z"/><glyph glyph-name="y" unicode="y" vert-adv-y="1980" d="M935 990h162q17 0 24-9t0-25L584-356q-9-24-36-24H386q-17 0-24 9t0 25L504-2 109 956q-7 16 0 25t24 9h162q27 0 36-24l284-716 284 716q9 24 36 24z"/><glyph glyph-name="z" unicode="z" vert-adv-y="1980" d="M1042 960V829q0-24-14-38L447 183h570q13 0 21.5-8.5t8.5-21.5V30q0-14-8.5-22T1017 0H213q-13 0-21.5 8T183 30v131q0 24 14 38l581 608H208q-14 0-22 8.5t-8 21.5v123q0 14 8 22t22 8h804q14 0 22-8t8-22z"/><glyph glyph-name="braceleft" unicode="{" vert-adv-y="1980" d="M580 1284V815q0-23-17-32L324 659l239-123q17-9 17-32V35q0-31 19-49t51-18h275q13 0 21.5-8t8.5-22v-124q0-14-8.5-22t-21.5-8H526q-73 0-124.5 45T350-37v475q0 24-19 36L55 632q-11 7-11 27.5T55 687l276 158q19 12 19 36v475q0 88 52 133t124 45h399q13 0 21.5-8t8.5-22v-124q0-14-8.5-22t-21.5-8H650q-32 0-51-17.5t-19-48.5z"/><glyph glyph-name="bar" unicode="|" vert-adv-y="1980" d="M500-350v1920q0 14 8 22t22 8h170q14 0 22-8t8-22V-350q0-14-8-22t-22-8H530q-14 0-22 8t-8 22z"/><glyph glyph-name="braceright" unicode="}" vert-adv-y="1980" d="M650 815v469q0 31-19 48.5t-51 17.5H305q-13 0-21.5 8t-8.5 22v124q0 14 8.5 22t21.5 8h399q72 0 124-45t52-133V881q0-24 19-36l276-158q11-7 11-27.5t-11-27.5L899 474q-19-12-19-36V-37q0-89-51.5-134T704-216H305q-13 0-21.5 8t-8.5 22v124q0 14 8.5 22t21.5 8h275q32 0 51 18t19 49v469q0 23 17 32l239 123-239 124q-17 9-17 32z"/><glyph glyph-name="asciitilde" unicode="~" vert-adv-y="1980" d="M371 893q60 0 112.5-21.5t87-53 69.5-69 63-69 64.5-53T843 606q56 0 89.5 38.5T972 735q3 22 30 22h131q27 0 26-27-2-135-85.5-216.5T861 432q-61 0-113.5 21.5t-87.5 53-70 69-63 69-64.5 53T387 719q-56 0-88.5-38.5T258 590q-3-21-30-21H97q-27 0-26 26 2 135 86 216.5T371 893z"/><glyph glyph-name="uni00A0" vert-adv-y="1980"/><glyph glyph-name="exclamdown" unicode="¡" vert-adv-y="1980" d="M615 1013q75 0 127-52t52-127q0-74-52-126.5T615 655q-74 0-126 52.5T437 834q0 75 52 127t126 52zm-48-536h97q32 0 35-31l60-656q7-73-35-118.5T615-374t-109 45.5T471-210l61 656q3 31 35 31z"/><glyph glyph-name="cent" unicode="¢" vert-adv-y="1980" d="M972 508l123-79q27-18 10-42-60-91-157.5-149.5T730 165V-50q0-30-30-30h-91q-30 0-30 30v216q-204 27-332.5 174.5T118 700t128.5 359.5T579 1235v215q0 30 30 30h91q30 0 30-30v-214q120-14 217.5-72.5T1105 1013q17-23-10-42l-123-79q-22-15-42 8-87 109-224 126V375q135 15 224 125 19 23 42 8zM345 700q0-128 72-215t186-107v645q-114-20-186-107.5T345 700z"/><glyph glyph-name="sterling" unicode="£" vert-adv-y="1980" d="M399 203h676q13 0 21.5-8.5t8.5-21.5V30q0-14-8.5-22T1075 0H145q-13 0-21.5 8T115 30v173q53 14 102 49.5t86 102T340 502q0 32-7 71H98q-14 0-22 8.5T68 603v59q0 14 8 22t22 8h189q-7 14-29 55t-32 62.5-24.5 59-20.5 75-6 78.5q0 181 124 287.5T640 1416q216 0 340.5-107t124.5-295q0-14-8-23t-21-9H927q-31 0-32 28-3 101-70 153t-184 52q-124 0-189-57t-65-155q0-53 18-102t53-112.5 49-96.5h417q14 0 22-8t8-22v-59q0-13-8-21.5t-22-8.5H542q5-33 5-65 0-95-38.5-174T399 203z"/><glyph glyph-name="currency" unicode="¤" vert-adv-y="1980" d="M1076 646q0-142-70-254l131-131-131-131-128 128q-116-78-263-78t-263 78L224 130 93 261l131 131q-70 112-70 254 0 141 70 255L93 1032l131 131 128-128q114 78 263 78t263-78l128 128 131-131-131-131q70-114 70-255zM615 367q116 0 191 78t75 201-75 201.5T615 926t-191-78.5T349 646t75-201 191-78z"/><glyph glyph-name="yen" unicode="¥" vert-adv-y="1980" d="M956 1340h180q18 0 23.5-10t-3.5-26L749 553h275q14 0 22-8.5t8-21.5v-58q0-13-8-21.5t-22-8.5H730V286h294q14 0 22-8t8-22v-60q0-12-8.5-20t-21.5-8H730V30q0-14-8-22t-22-8H530q-14 0-22 8t-8 22v138H206q-14 0-22 8t-8 22v58q0 14 8 22t22 8h294v149H206q-14 0-22 8.5t-8 21.5v58q0 13 8 21.5t22 8.5h276L74 1304q-9 16-3.5 26t23.5 10h180q26 0 36-20l305-582 305 582q10 20 36 20z"/><glyph glyph-name="brokenbar" unicode="¦" vert-adv-y="1980" d="M700 848H530q-14 0-22 8t-8 22v692q0 14 8 22t22 8h170q14 0 22-8t8-22V878q0-14-8-22t-22-8zm0-1228H530q-14 0-22 8t-8 22v692q0 14 8 22t22 8h170q14 0 22-8t8-22v-692q0-14-8-22t-22-8z"/><glyph glyph-name="section" unicode="§" vert-adv-y="1980" d="M1112 490q0-169-103-274 55-83 55-204 0-188-120.5-290T594-380q-212 0-335.5 89T123-22q-1 15 6.5 25T150 13h156q24 0 29-29 14-74 82-115t180-41q116 0 182 47t66 146q0 86-56 129t-197 82q-57 16-97 29t-93.5 35-90.5 45-76.5 58-63 75-39 95.5T117 689q0 157 104 263-51 82-51 200 0 180 114.5 284.5T606 1541q188 0 303-88.5t133-263.5q1-15-6.5-23.5t-20.5-8.5H871q-24 0-29 26-12 67-75.5 109.5T607 1335q-102 0-161.5-49.5T386 1147q0-159 206-212 65-16 105.5-27.5t101-33 99.5-43 83.5-56 70-73.5 43-93.5T1112 490zm-520-53q163-42 243-80 61 49 61 136 0 52-20 89.5t-64.5 65-92 44.5T592 731q-125 33-204 74-54-48-54-134 0-96 62.5-148T592 437z"/><glyph glyph-name="dieresis" unicode="¨" vert-adv-y="1980" d="M411 1261q-48 0-82 34.5t-34 83.5q0 48 34.5 82t81.5 34q48 0 82.5-34t34.5-82q0-49-34.5-83.5T411 1261zm408 0q-48 0-82 34.5t-34 83.5q0 48 34.5 82t81.5 34q48 0 82.5-34t34.5-82q0-49-34.5-83.5T819 1261z"/><glyph glyph-name="copyright" unicode="©" vert-adv-y="1980" d="M615 91q-161 0-298 79.5t-217 216T20 684t80 297.5 217 216 298 79.5 298-79.5 217-216 80-297.5-80-297.5-217-216T615 91zm0 131q191 0 323.5 135T1071 684t-132.5 327T615 1146t-324-135-133-327 133-327 324-135zm12 154q-127 0-216 89t-89 219 89 219 216 89q108 0 180-64 20-19-1-43l-40-46q-14-16-42-1-44 26-94 26-75 0-125.5-52T454 684t50.5-128T630 504q50 0 95 26 28 14 42-1l41-46q21-24 0-43-75-64-181-64z"/><glyph glyph-name="ordfeminine" unicode="ª" vert-adv-y="1980" d="M849 1400h111q18 0 18-18V700q0-18-18-18H849q-16 0-20 16l-10 68q-94-84-223-84-147 0-245.5 105.5T252 1046t98.5 258.5T597 1410q128 0 222-83l10 58q3 15 20 15zM623 841q87 0 146 58t59 147-59 147.5-146 58.5-146-58.5-59-147.5 59-147 146-58z"/><glyph glyph-name="guillemotleft" unicode="«" vert-adv-y="1980" d="M607 944L355 562l252-382q10-16 4-26t-24-10H417q-25 0-36 20L131 542q-14 20 0 40l250 378q11 20 36 20h170q18 0 24-10t-4-26zm492 0L847 562l252-382q10-16 4-26t-24-10H909q-25 0-36 20L623 542q-14 20 0 40l250 378q11 20 36 20h170q18 0 24-10t-4-26z"/><glyph glyph-name="logicalnot" unicode="¬" vert-adv-y="1980" d="M145 744h940q13 0 21.5-8t8.5-22V286q0-14-8.5-22t-21.5-8H951q-13 0-21.5 8t-8.5 22v287H145q-13 0-21.5 8.5T115 603v111q0 14 8.5 22t21.5 8z"/><glyph glyph-name="uni00AD" unicode="­" vert-adv-y="1980" d="M145 751h940q13 0 21.5-8.5t8.5-21.5V597q0-13-8.5-21.5T1085 567H145q-13 0-21.5 8.5T115 597v124q0 13 8.5 21.5T145 751z"/><glyph glyph-name="registered" unicode="®" vert-adv-y="1980" d="M615 1277q161 0 298-79.5t217-216 80-297.5-80-297.5-217-216T615 91t-298 79.5-217 216T20 684t80 297.5 217 216 298 79.5zm0-1055q191 0 323.5 135T1071 684t-132.5 327T615 1146t-324-135-133-327 132.5-327T615 222zm119 371l150-157q7-8 4.5-15t-13.5-7H767q-10 0-20 10L595 589h-94V431q0-17-15-17h-91q-17 0-17 17v507q0 16 17 16h292q88 0 145-46.5T889 771q0-76-42.5-121.5T734 593zm-59 255H501V695h174q88 0 88 76 0 36-23 56.5T675 848z"/><glyph glyph-name="macron" unicode="¯" vert-adv-y="1980" d="M877 1319H353q-13 0-21.5 8.5T323 1349v116q0 13 8.5 21.5t21.5 8.5h524q13 0 21.5-8.5t8.5-21.5v-116q0-13-8.5-21.5T877 1319z"/><glyph glyph-name="degree" unicode="°" vert-adv-y="1980" d="M615 737q-133 0-222.5 88.5T303 1051q0 134 89.5 222t222.5 88 222.5-88 89.5-222q0-137-89.5-225.5T615 737zm0 156q72 0 113.5 45.5T770 1051q0 65-41.5 110T615 1206t-113.5-45-41.5-110q0-67 41.5-112.5T615 893z"/><glyph glyph-name="plusminus" unicode="±" vert-adv-y="1980" d="M701 924h384q13 0 21.5-8t8.5-22V783q0-13-8.5-21.5T1085 753H701V363q0-13-8.5-21.5T671 333H559q-13 0-21.5 8.5T529 363v390H145q-13 0-21.5 8.5T115 783v111q0 14 8.5 22t21.5 8h384v391q0 13 8.5 21.5t21.5 8.5h112q13 0 21.5-8.5t8.5-21.5V924zM161 171h908q13 0 21.5-8.5t8.5-21.5V30q0-14-8.5-22T1069 0H161q-13 0-21.5 8T131 30v111q0 13 8.5 21.5T161 171z"/><glyph glyph-name="uni00B2" unicode="²" vert-adv-y="1980" d="M403 390h639q14 0 22-8t8-22V240q0-14-8-22t-22-8H173q-13 0-21.5 8t-8.5 22v92q0 87 39.5 153T285 589.5t139 67T576 705t139 40.5T817.5 798t39.5 76q0 69-57.5 101T619 1007q-134 0-202-38.5T343 844q-2-31-32-28l-147 16q-29 3-29 32 0 167 124.5 251.5T608 1200q216 0 339.5-85.5T1071 874q0-70-37-123.5T938 665t-130-56.5-142-44-130-41-96-55-37-78.5z"/><glyph glyph-name="uni00B3" unicode="³" vert-adv-y="1980" d="M882 707q122-28 184.5-81.5T1129 469q0-285-510-285-98 0-172.5 7.5T308 219t-104.5 52.5-63.5 84T117 476q0 29 29 32l154 17q30 3 33-28 3-71 70-98t208-27q143 0 214 25t71 91q0 74-81 104.5T531 623q-30 0-30 30v85q0 30 31 30 134 0 210 13t106.5 38.5T879 890q0 122-259 122-128 0-197-33.5T350 862q-2-31-33-28l-154 16q-29 3-29 32 0 169 127 243.5t364 74.5q142 0 245-28t163-90 60-155q0-84-56.5-141T882 707z"/><glyph glyph-name="acute" unicode="´" vert-adv-y="1980" d="M619 1185H481q-17 0-24 9t0 25l120 252q11 24 34 24h138q17 0 24-9t0-25l-120-252q-11-24-34-24z"/><glyph glyph-name="uni00B5" unicode="µ" vert-adv-y="1980" d="M885 990h162q13 0 21.5-8t8.5-22V30q0-14-8.5-22T1047 0H893q-28 0-30 30l-8 142h-28Q788 86 708 33T517-20q-76 0-142 26v-356q0-14-8.5-22t-21.5-8H183q-13 0-21.5 8t-8.5 22V960q0 14 8.5 22t21.5 8h162q13 0 21.5-8t8.5-22V435q0-115 63.5-182.5T614 185t176.5 68T855 435v525q0 14 8.5 22t21.5 8z"/><glyph glyph-name="paragraph" unicode="¶" vert-adv-y="1980" d="M503 1400h274q13 0 21.5-8t8.5-22V-350q0-14-8.5-22t-21.5-8H628q-14 0-22 8t-8 22v850h-95q-95 0-164.5 19t-115 54.5-72.5 92T113.5 790 103 950t10.5 160 37.5 124.5 72.5 92 115 54.5 164.5 19zm446 0h148q13 0 21.5-8t8.5-22V-350q0-14-8.5-22t-21.5-8H949q-13 0-21.5 8t-8.5 22v1720q0 14 8.5 22t21.5 8z"/><glyph glyph-name="periodcentered" unicode="·" vert-adv-y="1980" d="M615 436q-78 0-133 54.5T427 624q0 78 55 132.5T615 811t133-54.5T803 624q0-79-55-133.5T615 436z"/><glyph glyph-name="cedilla" unicode="¸" vert-adv-y="1980" d="M696 0l-75-71q71-6 121.5-48.5T793-232q0-82-50.5-132.5t-124-64.5-157.5 0q-18 3-18 22v79q0 10 6 15.5t16 4.5q80-12 125.5 6.5T636-243q0 23-23 40t-60.5 19.5T467-200q-11-4-17.5-.5T443-186v80q0 12 10 24l82 82h161z"/><glyph glyph-name="uni00B9" unicode="¹" vert-adv-y="1980" d="M763 393h272q13 0 21.5-8.5t8.5-21.5V240q0-14-8.5-22t-21.5-8H195q-13 0-21.5 8t-8.5 22v123q0 13 8.5 21.5T195 393h346v582Q416 854 231 854q-30 0-30 29v139q0 31 30 31 160 0 310 137h192q13 0 21.5-8t8.5-22V393z"/><glyph glyph-name="ordmasculine" unicode="º" vert-adv-y="1980" d="M615 682q-151 0-257.5 106T251 1046t106.5 258T615 1410t257.5-106T979 1046 872.5 788 615 682zm0 159q87 0 146.5 59t59.5 146-60 146.5-146 59.5-145.5-59.5T410 1046t59.5-146T615 841z"/><glyph glyph-name="guillemotright" unicode="»" vert-adv-y="1980" d="M383 562L131 944q-10 16-4 26t24 10h170q25 0 36-20l250-378q14-20 0-40L357 164q-11-20-36-20H151q-18 0-24 10t4 26zm492 0L623 944q-10 16-4 26t24 10h170q25 0 36-20l250-378q14-20 0-40L849 164q-11-20-36-20H643q-18 0-24 10t4 26z"/><glyph glyph-name="onequarter" unicode="¼" vert-adv-y="1980" d="M1035 778H195q-30 0-30 25v103q0 25 30 25h346v488q-127-101-310-101-30 0-30 24v117q0 26 30 26 158 0 310 115h192q30 0 30-25V931h272q30 0 30-25V803q0-25-30-25zM45 690h1140q13 0 21.5-8t8.5-22v-96q0-14-8.5-22t-21.5-8H45q-13 0-21.5 8T15 564v96q0 14 8.5 22t21.5 8zM964 62h139q13 0 21.5-7.5T1133 36V-71q0-26-30-26H964v-257q0-26-30-26H772q-30 0-30 26v257H125q-30 0-30 26v512q0 11 8.5 18.5T125 467h162q13 0 21.5-7.5T317 441V62h425v379q0 11 8.5 18.5T772 467h162q13 0 21.5-7.5T964 441V62z"/><glyph glyph-name="onehalf" unicode="½" vert-adv-y="1980" d="M1047 778H207q-30 0-30 25v103q0 25 30 25h346v488q-127-101-310-101-30 0-30 24v117q0 26 30 26 158 0 310 115h192q30 0 30-25V931h272q30 0 30-25V803q0-25-30-25zM45 690h1140q13 0 21.5-8t8.5-22v-96q0-14-8.5-22t-21.5-8H45q-13 0-21.5 8T15 564v96q0 14 8.5 22t21.5 8zm369-919h639q30 0 30-25v-101q0-25-30-25H184q-30 0-30 25v77q0 74 39.5 129.5T296-61 435-5t152 41 139 34 102.5 44 39.5 64q0 57-58 84t-180 27q-134 0-202-32.5T354 152q-2-26-33-23l-146 13q-29 3-29 27 0 140 124.5 211T619 451q215 0 338.5-72T1081 178q0-59-37-104T948.5 2 819-45.5t-142.5-37-130-34.5-95.5-46-37-66z"/><glyph glyph-name="threequarters" unicode="¾" vert-adv-y="1980" d="M871 1196q123-24 185-68.5t62-131.5q0-239-510-239-124 0-211 11t-155.5 37.5-102 75.5-33.5 121q0 24 29 27l154 14q31 2 33-24 4-59 70-81.5T600 915q144 0 214.5 21t70.5 76q0 62-81 87.5T520 1125q-30 0-30 25v71q0 26 31 26 135 0 210.5 11t106 32.5T868 1350q0 102-259 102-128 0-197-28t-73-98q-2-26-32-24l-155 14q-29 3-29 27 0 141 127 203.5t364 62.5q218 0 343-56.5t125-172.5q0-70-56.5-118T871 1196zM45 690h1140q13 0 21.5-8t8.5-22v-96q0-14-8.5-22t-21.5-8H45q-13 0-21.5 8T15 564v96q0 14 8.5 22t21.5 8zm738-223h162q13 0 21.5-7.5T975 441V62h139q13 0 21.5-7.5T1144 36V-71q0-26-30-26H975v-257q0-26-30-26H783q-30 0-30 26v257H136q-30 0-30 26v512q0 11 8.5 18.5T136 467h162q13 0 21.5-7.5T328 441V62h425v379q0 11 8.5 18.5T783 467z"/><glyph glyph-name="questiondown" unicode="¿" vert-adv-y="1980" d="M633 1013q74 0 126.5-52T812 835q0-75-52.5-127T633 656t-126.5 52T454 835q0 74 52.5 126t126.5 52zm-73-456h157q30 0 30-32 0-81-21.5-141t-56-95-76-61-83-45.5-76-41-56-55.5T357 5q0-81 62.5-129.5T608-173t195.5 53T876 41q1 28 32 28h149q29 0 29-32 0-198-124.5-304T612-373q-219 0-343.5 98.5T144 3q0 71 21 124.5t54.5 86 74 57.5 81.5 47.5 75 48 56 66 23 94.5q1 30 31 30z"/><glyph glyph-name="Agrave" unicode="À" vert-adv-y="1980" d="M506 1569l-120 252q-7 16 0 25t24 9h138q23 0 34-24l120-252q7-16 0-25t-24-9H540q-23 0-34 24zm287-253L1159 34q9-34-24-34H964q-29 0-34 24l-69 252H369L300 24q-5-24-34-24H95Q62 0 71 34l366 1282q7 24 35 24h286q28 0 35-24zm-198-214L423 475h384l-172 627h-40z"/><glyph glyph-name="Aacute" unicode="Á" vert-adv-y="1980" d="M690 1545H552q-17 0-24 9t0 25l120 252q11 24 34 24h138q17 0 24-9t0-25l-120-252q-11-24-34-24zm103-229L1159 34q9-34-24-34H964q-29 0-34 24l-69 252H369L300 24q-5-24-34-24H95Q62 0 71 34l366 1282q7 24 35 24h286q28 0 35-24zm-198-214L423 475h384l-172 627h-40z"/><glyph glyph-name="Acircumflex" unicode="Â" vert-adv-y="1980" d="M428 1542H264q-19 0-24 11t7 25l222 261q15 16 36 16h220q21 0 36-16l222-261q12-14 7-25t-24-11H802q-23 0-36 16l-151 170-151-170q-13-16-36-16zm365-226L1159 34q9-34-24-34H964q-29 0-34 24l-69 252H369L300 24q-5-24-34-24H95Q62 0 71 34l366 1282q7 24 35 24h286q28 0 35-24zm-198-214L423 475h384l-172 627h-40z"/><glyph glyph-name="Atilde" unicode="Ã" vert-adv-y="1980" d="M351 1647h-85q-20 0-20 25 1 91 61.5 139.5T452 1860q56 0 103-23t74.5-50 64-50 72.5-23 59 18 33 43q6 17 22 17h86q20 0 20-21-2-94-62.5-143T779 1579q-55 0-102 22.5t-75 50-64.5 50T465 1724q-68 0-92-60-6-17-22-17zm442-331L1159 34q9-34-24-34H964q-29 0-34 24l-69 252H369L300 24q-5-24-34-24H95Q62 0 71 34l366 1282q7 24 35 24h286q28 0 35-24zm-198-214L423 475h384l-172 627h-40z"/><glyph glyph-name="Adieresis" unicode="Ä" vert-adv-y="1980" d="M411 1621q-48 0-82 34.5t-34 83.5q0 48 34.5 82t81.5 34q48 0 82.5-34t34.5-82q0-49-34.5-83.5T411 1621zm408 0q-48 0-82 34.5t-34 83.5q0 48 34.5 82t81.5 34q48 0 82.5-34t34.5-82q0-49-34.5-83.5T819 1621zm-26-305L1159 34q9-34-24-34H964q-29 0-34 24l-69 252H369L300 24q-5-24-34-24H95Q62 0 71 34l366 1282q7 24 35 24h286q28 0 35-24zm-198-214L423 475h384l-172 627h-40z"/><glyph glyph-name="Aring" unicode="Å" vert-adv-y="1980" d="M615 1474q-81 0-137 56t-56 134 56 134.5 137 56.5 136.5-56.5T807 1664t-55.5-134-136.5-56zm0 257q-29 0-48-19t-19-47 19-47 48-19q28 0 48.5 19t19.5 47-20.5 47-47.5 19zm178-415L1159 34q9-34-24-34H964q-29 0-34 24l-69 252H369L300 24q-5-24-34-24H95Q62 0 71 34l366 1282q7 24 35 24h286q28 0 35-24zm-198-214L423 475h384l-172 627h-40z"/><glyph glyph-name="AE" unicode="Æ" vert-adv-y="1980" d="M837 206h324q13 0 21.5-8t8.5-22V30q0-14-8.5-22T1161 0H645q-13 0-21.5 8T615 30v159H325L264 24q-9-24-34-24H67Q50 0 43.5 9.5T43 34l500 1282q9 24 35 24h581q13 0 21.5-8t8.5-22v-146q0-14-8.5-22t-21.5-8H837V802h280q13 0 21.5-8t8.5-22V626q0-14-8.5-22t-21.5-8H837V206zM615 974L398 387h217v587z"/><glyph glyph-name="Ccedilla" unicode="Ç" vert-adv-y="1980" d="M930 434h156q29 0 27-33-14-217-125-318.5T680-29l-45-42q71-6 121.5-48.5T807-232q0-82-50.5-132.5t-124-64.5-157.5 0q-18 3-18 22v79q0 10 6 15.5t16 4.5q80-12 125.5 6.5T650-243q0 23-23 40t-60.5 19.5T481-200q-11-4-17.5-.5T457-186v80q0 12 10 24l59 59Q312 5 212.5 167.5T113 665q0 373 124 534t396 161q108 0 189-24t145.5-78.5 101.5-151 44-234.5q2-33-27-33H930q-28 0-31 26-10 84-33 139.5t-59.5 84-77 39.5-96.5 11q-59 0-102-11.5t-81-43-62-84T350.5 864 337 665t13.5-199T388 329.5t62-84 81-43T633 191q116 0 181.5 47T899 408q3 26 31 26z"/><glyph glyph-name="Egrave" unicode="È" vert-adv-y="1980" d="M678 1545H540q-23 0-34 24l-120 252q-7 16 0 25t24 9h138q23 0 34-24l120-252q7-16 0-25t-24-9zM1041 0H189q-13 0-21.5 8T159 30v1280q0 14 8.5 22t21.5 8h850q13 0 21.5-8t8.5-22v-146q0-14-8.5-22t-21.5-8H389V781h605q14 0 22-8.5t8-21.5V605q0-13-8-21.5t-22-8.5H389V206h652q13 0 21.5-8t8.5-22V30q0-14-8.5-22T1041 0z"/><glyph glyph-name="Eacute" unicode="É" vert-adv-y="1980" d="M690 1545H552q-17 0-24 9t0 25l120 252q11 24 34 24h138q17 0 24-9t0-25l-120-252q-11-24-34-24zM1041 0H189q-13 0-21.5 8T159 30v1280q0 14 8.5 22t21.5 8h850q13 0 21.5-8t8.5-22v-146q0-14-8.5-22t-21.5-8H389V781h605q14 0 22-8.5t8-21.5V605q0-13-8-21.5t-22-8.5H389V206h652q13 0 21.5-8t8.5-22V30q0-14-8.5-22T1041 0z"/><glyph glyph-name="Ecircumflex" unicode="Ê" vert-adv-y="1980" d="M428 1542H264q-19 0-24 11t7 25l222 261q15 16 36 16h220q21 0 36-16l222-261q12-14 7-25t-24-11H802q-23 0-36 16l-151 170-151-170q-13-16-36-16zM1041 0H189q-13 0-21.5 8T159 30v1280q0 14 8.5 22t21.5 8h850q13 0 21.5-8t8.5-22v-146q0-14-8.5-22t-21.5-8H389V781h605q14 0 22-8.5t8-21.5V605q0-13-8-21.5t-22-8.5H389V206h652q13 0 21.5-8t8.5-22V30q0-14-8.5-22T1041 0z"/><glyph glyph-name="Edieresis" unicode="Ë" vert-adv-y="1980" d="M411 1621q-48 0-82 34.5t-34 83.5q0 48 34.5 82t81.5 34q48 0 82.5-34t34.5-82q0-49-34.5-83.5T411 1621zm408 0q-48 0-82 34.5t-34 83.5q0 48 34.5 82t81.5 34q48 0 82.5-34t34.5-82q0-49-34.5-83.5T819 1621zM1041 0H189q-13 0-21.5 8T159 30v1280q0 14 8.5 22t21.5 8h850q13 0 21.5-8t8.5-22v-146q0-14-8.5-22t-21.5-8H389V781h605q14 0 22-8.5t8-21.5V605q0-13-8-21.5t-22-8.5H389V206h652q13 0 21.5-8t8.5-22V30q0-14-8.5-22T1041 0z"/><glyph glyph-name="Igrave" unicode="Ì" vert-adv-y="1980" d="M678 1545H540q-23 0-34 24l-120 252q-7 16 0 25t24 9h138q23 0 34-24l120-252q7-16 0-25t-24-9zM1068 0H162q-14 0-22 8t-8 22v146q0 14 8 22t22 8h338v928H162q-14 0-22 8t-8 22v146q0 14 8 22t22 8h906q14 0 22-8t8-22v-146q0-14-8-22t-22-8H730V206h338q14 0 22-8t8-22V30q0-14-8-22t-22-8z"/><glyph glyph-name="Iacute" unicode="Í" vert-adv-y="1980" d="M690 1545H552q-17 0-24 9t0 25l120 252q11 24 34 24h138q17 0 24-9t0-25l-120-252q-11-24-34-24zM1068 0H162q-14 0-22 8t-8 22v146q0 14 8 22t22 8h338v928H162q-14 0-22 8t-8 22v146q0 14 8 22t22 8h906q14 0 22-8t8-22v-146q0-14-8-22t-22-8H730V206h338q14 0 22-8t8-22V30q0-14-8-22t-22-8z"/><glyph glyph-name="Icircumflex" unicode="Î" vert-adv-y="1980" d="M428 1542H264q-19 0-24 11t7 25l222 261q15 16 36 16h220q21 0 36-16l222-261q12-14 7-25t-24-11H802q-23 0-36 16l-151 170-151-170q-13-16-36-16zM1068 0H162q-14 0-22 8t-8 22v146q0 14 8 22t22 8h338v928H162q-14 0-22 8t-8 22v146q0 14 8 22t22 8h906q14 0 22-8t8-22v-146q0-14-8-22t-22-8H730V206h338q14 0 22-8t8-22V30q0-14-8-22t-22-8z"/><glyph glyph-name="Idieresis" unicode="Ï" vert-adv-y="1980" d="M411 1621q-48 0-82 34.5t-34 83.5q0 48 34.5 82t81.5 34q48 0 82.5-34t34.5-82q0-49-34.5-83.5T411 1621zm408 0q-48 0-82 34.5t-34 83.5q0 48 34.5 82t81.5 34q48 0 82.5-34t34.5-82q0-49-34.5-83.5T819 1621zM1068 0H162q-14 0-22 8t-8 22v146q0 14 8 22t22 8h338v928H162q-14 0-22 8t-8 22v146q0 14 8 22t22 8h906q14 0 22-8t8-22v-146q0-14-8-22t-22-8H730V206h338q14 0 22-8t8-22V30q0-14-8-22t-22-8z"/><glyph glyph-name="Eth" unicode="Ð" vert-adv-y="1980" d="M177 1340h396q132 0 232-32.5t164.5-89.5 105-142.5T1131 892t16-222-16-222-56.5-183.5-105-142.5T805 32.5 573 0H177q-13 0-21.5 8T147 30v552H91q-13 0-21.5 8T61 612v116q0 14 8.5 22t21.5 8h56v552q0 14 8.5 22t21.5 8zM377 206h188q86 0 148 21t100.5 58 61 97T905 509.5t8 160.5-8 160.5T874.5 958t-61 97-100.5 58-148 21H377V758h238q13 0 21.5-8t8.5-22V612q0-14-8.5-22t-21.5-8H377V206z"/><glyph glyph-name="Ntilde" unicode="Ñ" vert-adv-y="1980" d="M351 1647h-85q-20 0-20 25 1 91 61.5 139.5T452 1860q56 0 103-23t74.5-50 64-50 72.5-23 59 18 33 43q6 17 22 17h86q20 0 20-21-2-94-62.5-143T779 1579q-55 0-102 22.5t-75 50-64.5 50T465 1724q-68 0-92-60-6-17-22-17zm549-307h149q13 0 21.5-8t8.5-22V30q0-14-8.5-22T1049 0H847q-26 0-36 20L360 990V30q0-14-8-22t-22-8H181q-13 0-21.5 8T151 30v1280q0 14 8.5 22t21.5 8h202q27 0 36-20l451-968v958q0 14 8 22t22 8z"/><glyph glyph-name="Ograve" unicode="Ò" vert-adv-y="1980" d="M678 1545H540q-23 0-34 24l-120 252q-7 16 0 25t24 9h138q23 0 34-24l120-252q7-16 0-25t-24-9zM615-30q-259 0-380.5 162T113 665q0 250 55.5 404T333 1291.5t282 68.5 282-68.5 164.5-222.5 55.5-404q0-371-121.5-533T615-30zm0 221q53 0 93.5 12t76.5 43 59 83.5 36 137T893 665t-13 198.5-36 137-59 83.5-76.5 43-93.5 12-93.5-12-76.5-43-59-83.5-36-137T337 665t13-198.5 36-137 59-83.5 76.5-43 93.5-12z"/><glyph glyph-name="Oacute" unicode="Ó" vert-adv-y="1980" d="M690 1545H552q-17 0-24 9t0 25l120 252q11 24 34 24h138q17 0 24-9t0-25l-120-252q-11-24-34-24zM615-30q-259 0-380.5 162T113 665q0 250 55.5 404T333 1291.5t282 68.5 282-68.5 164.5-222.5 55.5-404q0-371-121.5-533T615-30zm0 221q53 0 93.5 12t76.5 43 59 83.5 36 137T893 665t-13 198.5-36 137-59 83.5-76.5 43-93.5 12-93.5-12-76.5-43-59-83.5-36-137T337 665t13-198.5 36-137 59-83.5 76.5-43 93.5-12z"/><glyph glyph-name="Ocircumflex" unicode="Ô" vert-adv-y="1980" d="M428 1542H264q-19 0-24 11t7 25l222 261q15 16 36 16h220q21 0 36-16l222-261q12-14 7-25t-24-11H802q-23 0-36 16l-151 170-151-170q-13-16-36-16zM615-30q-259 0-380.5 162T113 665q0 250 55.5 404T333 1291.5t282 68.5 282-68.5 164.5-222.5 55.5-404q0-371-121.5-533T615-30zm0 221q53 0 93.5 12t76.5 43 59 83.5 36 137T893 665t-13 198.5-36 137-59 83.5-76.5 43-93.5 12-93.5-12-76.5-43-59-83.5-36-137T337 665t13-198.5 36-137 59-83.5 76.5-43 93.5-12z"/><glyph glyph-name="Otilde" unicode="Õ" vert-adv-y="1980" d="M779 1579q-55 0-102 22.5t-75 50-64.5 50T465 1724q-68 0-92-60-6-17-22-17h-85q-20 0-20 25 1 91 61.5 139.5T452 1860q56 0 103-23t74.5-50 64-50 72.5-23 59 18 33 43q6 17 22 17h86q20 0 20-21-2-94-62.5-143T779 1579zM615-30q-259 0-380.5 162T113 665q0 250 55.5 404T333 1291.5t282 68.5 282-68.5 164.5-222.5 55.5-404q0-371-121.5-533T615-30zm0 221q53 0 93.5 12t76.5 43 59 83.5 36 137T893 665t-13 198.5-36 137-59 83.5-76.5 43-93.5 12-93.5-12-76.5-43-59-83.5-36-137T337 665t13-198.5 36-137 59-83.5 76.5-43 93.5-12z"/><glyph glyph-name="Odieresis" unicode="Ö" vert-adv-y="1980" d="M411 1621q-48 0-82 34.5t-34 83.5q0 48 34.5 82t81.5 34q48 0 82.5-34t34.5-82q0-49-34.5-83.5T411 1621zm408 0q-48 0-82 34.5t-34 83.5q0 48 34.5 82t81.5 34q48 0 82.5-34t34.5-82q0-49-34.5-83.5T819 1621zM615-30q-259 0-380.5 162T113 665q0 250 55.5 404T333 1291.5t282 68.5 282-68.5 164.5-222.5 55.5-404q0-371-121.5-533T615-30zm0 221q53 0 93.5 12t76.5 43 59 83.5 36 137T893 665t-13 198.5-36 137-59 83.5-76.5 43-93.5 12-93.5-12-76.5-43-59-83.5-36-137T337 665t13-198.5 36-137 59-83.5 76.5-43 93.5-12z"/><glyph glyph-name="multiply" unicode="×" vert-adv-y="1980" d="M1044 968L736 660l308-308q22-22 0-43l-78-78q-21-21-42 0L615 539 307 231q-21-21-43 0l-78 78q-22 21 0 43l308 308-308 308q-22 22 0 43l78 79q22 22 43 0l308-309 309 309q20 22 42 0l78-79q22-21 0-43z"/><glyph glyph-name="Oslash" unicode="Ø" vert-adv-y="1980" d="M1080 1424l-102-203q139-164 139-556 0-371-121.5-533T615-30q-143 0-241 47l-63-125q-10-22-34-22H172q-17 0-23.5 10t1.5 26l102 204Q113 273 113 665q0 250 55.5 404T333 1291.5t282 68.5q143 0 241-47l63 125q10 22 34 22h105q17 0 23.5-10t-1.5-26zM337 665q0-197 39-308l377 751q-53 31-138 31-53 0-93.5-12t-76.5-43-59-83.5-36-137T337 665zm278-474q53 0 93.5 12t76.5 43 59 83.5 36 137T893 665q0 197-39 308L477 222q53-31 138-31z"/><glyph glyph-name="Ugrave" unicode="Ù" vert-adv-y="1980" d="M678 1545H540q-23 0-34 24l-120 252q-7 16 0 25t24 9h138q23 0 34-24l120-252q7-16 0-25t-24-9zM615-30Q383-30 258 90.5T133 447v863q0 14 8.5 22t21.5 8h170q13 0 21.5-8t8.5-22V466q0-131 64-203t188-72 188 72 64 203v844q0 14 8.5 22t21.5 8h170q13 0 21.5-8t8.5-22V447q0-236-125-356.5T615-30z"/><glyph glyph-name="Uacute" unicode="Ú" vert-adv-y="1980" d="M690 1545H552q-17 0-24 9t0 25l120 252q11 24 34 24h138q17 0 24-9t0-25l-120-252q-11-24-34-24zM615-30Q383-30 258 90.5T133 447v863q0 14 8.5 22t21.5 8h170q13 0 21.5-8t8.5-22V466q0-131 64-203t188-72 188 72 64 203v844q0 14 8.5 22t21.5 8h170q13 0 21.5-8t8.5-22V447q0-236-125-356.5T615-30z"/><glyph glyph-name="Ucircumflex" unicode="Û" vert-adv-y="1980" d="M428 1542H264q-19 0-24 11t7 25l222 261q15 16 36 16h220q21 0 36-16l222-261q12-14 7-25t-24-11H802q-23 0-36 16l-151 170-151-170q-13-16-36-16zM615-30Q383-30 258 90.5T133 447v863q0 14 8.5 22t21.5 8h170q13 0 21.5-8t8.5-22V466q0-131 64-203t188-72 188 72 64 203v844q0 14 8.5 22t21.5 8h170q13 0 21.5-8t8.5-22V447q0-236-125-356.5T615-30z"/><glyph glyph-name="Udieresis" unicode="Ü" vert-adv-y="1980" d="M411 1621q-48 0-82 34.5t-34 83.5q0 48 34.5 82t81.5 34q48 0 82.5-34t34.5-82q0-49-34.5-83.5T411 1621zm408 0q-48 0-82 34.5t-34 83.5q0 48 34.5 82t81.5 34q48 0 82.5-34t34.5-82q0-49-34.5-83.5T819 1621zM615-30Q383-30 258 90.5T133 447v863q0 14 8.5 22t21.5 8h170q13 0 21.5-8t8.5-22V466q0-131 64-203t188-72 188 72 64 203v844q0 14 8.5 22t21.5 8h170q13 0 21.5-8t8.5-22V447q0-236-125-356.5T615-30z"/><glyph glyph-name="Yacute" unicode="Ý" vert-adv-y="1980" d="M690 1545H552q-17 0-24 9t0 25l120 252q11 24 34 24h138q17 0 24-9t0-25l-120-252q-11-24-34-24zm266-205h180q18 0 23.5-10t-3.5-26L730 518V30q0-14-8-22t-22-8H530q-14 0-22 8t-8 22v490L74 1304q-9 16-3.5 26t23.5 10h180q26 0 36-20l305-582 305 582q10 20 36 20z"/><glyph glyph-name="Thorn" unicode="Þ" vert-adv-y="1980" d="M349 1118h271q237 0 364-120t127-328-127-328-364-120H349V30q0-14-8.5-22T319 0H149q-13 0-21.5 8T119 30v1280q0 14 8.5 22t21.5 8h170q13 0 21.5-8t8.5-22v-192zm0-690h254q136 0 211 55.5T889 670t-75 186.5T603 912H349V428z"/><glyph glyph-name="germandbls" unicode="ß" vert-adv-y="1980" d="M849 756q0-29 17.5-54.5t45-46 61-42 67.5-48 61.5-59 45-80T1164 321q0-152-116.5-236.5T706 0H590q-14 0-22 8t-8 22v117q0 13 8 21.5t22 8.5h96q256 0 256 159 0 56-32 100.5T832 511t-91.5 60-77.5 72.5-32 95.5q0 35 13.5 65t33 53 39 47.5 33 59T763 1040q0 159-187 159-102 0-147-49.5T384 999V30q0-14-8-22t-22-8H192q-14 0-22 8t-8 22v728H56q-14 0-22 8t-8 22v122q0 14 8 22t22 8h106v71q0 187 108 288t308 101q189 0 297.5-87.5T984 1071q0-53-14-96.5t-34-71-39.5-50.5-33.5-47.5-14-49.5z"/><glyph glyph-name="agrave" unicode="à" vert-adv-y="1980" d="M514 1219l-120 252q-7 16 0 25t24 9h138q23 0 34-24l120-252q7-16 0-25t-24-9H548q-23 0-34 24zm569-1067q22-14 30.5-26.5T1122 89V60q0-75-104-75-72 0-119 44.5T852 156v29h-11Q809 94 719 34.5T491-25h-49q-151 0-235.5 77.5T122 268q0 127 76 201.5T429 554l399 26v60q0 107-48.5 148T605 829q-106 0-159.5-27.5T384 708q-3-22-28-22H202q-30 0-29 30 10 294 437 294 123 0 208-24t134.5-73 71-116 21.5-161V269q0-56 8.5-79.5T1083 152zm-567-4h31q73 0 134 21t104 71.5T828 365v71l-342-25q-147-11-147-129 0-134 177-134z"/><glyph glyph-name="aacute" unicode="á" vert-adv-y="1980" d="M698 1195H560q-17 0-24 9t0 25l120 252q11 24 34 24h138q17 0 24-9t0-25l-120-252q-11-24-34-24zm385-1043q22-14 30.5-26.5T1122 89V60q0-75-104-75-72 0-119 44.5T852 156v29h-11Q809 94 719 34.5T491-25h-49q-151 0-235.5 77.5T122 268q0 127 76 201.5T429 554l399 26v60q0 107-48.5 148T605 829q-106 0-159.5-27.5T384 708q-3-22-28-22H202q-30 0-29 30 10 294 437 294 123 0 208-24t134.5-73 71-116 21.5-161V269q0-56 8.5-79.5T1083 152zm-567-4h31q73 0 134 21t104 71.5T828 365v71l-342-25q-147-11-147-129 0-134 177-134z"/><glyph glyph-name="acircumflex" unicode="â" vert-adv-y="1980" d="M436 1192H272q-19 0-24 11t7 25l222 261q15 16 36 16h220q21 0 36-16l222-261q12-14 7-25t-24-11H810q-23 0-36 16l-151 170-151-170q-13-16-36-16zm647-1040q22-14 30.5-26.5T1122 89V60q0-75-104-75-72 0-119 44.5T852 156v29h-11Q809 94 719 34.5T491-25h-49q-151 0-235.5 77.5T122 268q0 127 76 201.5T429 554l399 26v60q0 107-48.5 148T605 829q-106 0-159.5-27.5T384 708q-3-22-28-22H202q-30 0-29 30 10 294 437 294 123 0 208-24t134.5-73 71-116 21.5-161V269q0-56 8.5-79.5T1083 152zm-567-4h31q73 0 134 21t104 71.5T828 365v71l-342-25q-147-11-147-129 0-134 177-134z"/><glyph glyph-name="atilde" unicode="ã" vert-adv-y="1980" d="M359 1297h-85q-20 0-20 25 1 91 61.5 139.5T460 1510q56 0 103-23t74.5-50 64-50 72.5-23 59 18 33 43q6 17 22 17h86q20 0 20-21-2-94-62.5-143T787 1229q-55 0-102 22.5t-75 50-64.5 50T473 1374q-68 0-92-60-6-17-22-17zm724-1145q22-14 30.5-26.5T1122 89V60q0-75-104-75-72 0-119 44.5T852 156v29h-11Q809 94 719 34.5T491-25h-49q-151 0-235.5 77.5T122 268q0 127 76 201.5T429 554l399 26v60q0 107-48.5 148T605 829q-106 0-159.5-27.5T384 708q-3-22-28-22H202q-30 0-29 30 10 294 437 294 123 0 208-24t134.5-73 71-116 21.5-161V269q0-56 8.5-79.5T1083 152zm-567-4h31q73 0 134 21t104 71.5T828 365v71l-342-25q-147-11-147-129 0-134 177-134z"/><glyph glyph-name="adieresis" unicode="ä" vert-adv-y="1980" d="M419 1271q-48 0-82 34.5t-34 83.5q0 48 34.5 82t81.5 34q48 0 82.5-34t34.5-82q0-49-34.5-83.5T419 1271zm408 0q-48 0-82 34.5t-34 83.5q0 48 34.5 82t81.5 34q48 0 82.5-34t34.5-82q0-49-34.5-83.5T827 1271zm256-1119q22-14 30.5-26.5T1122 89V60q0-75-104-75-72 0-119 44.5T852 156v29h-11Q809 94 719 34.5T491-25h-49q-151 0-235.5 77.5T122 268q0 127 76 201.5T429 554l399 26v60q0 107-48.5 148T605 829q-106 0-159.5-27.5T384 708q-3-22-28-22H202q-30 0-29 30 10 294 437 294 123 0 208-24t134.5-73 71-116 21.5-161V269q0-56 8.5-79.5T1083 152zm-567-4h31q73 0 134 21t104 71.5T828 365v71l-342-25q-147-11-147-129 0-134 177-134z"/><glyph glyph-name="aring" unicode="å" vert-adv-y="1980" d="M623 1124q-81 0-137 56t-56 134 56 134.5 137 56.5 136.5-56.5T815 1314t-55.5-134-136.5-56zm0 257q-29 0-48-19t-19-47 19-47 48-19q28 0 48.5 19t19.5 47-20.5 47-47.5 19zm460-1229q22-14 30.5-26.5T1122 89V60q0-75-104-75-72 0-119 44.5T852 156v29h-11Q809 94 719 34.5T491-25h-49q-151 0-235.5 77.5T122 268q0 127 76 201.5T429 554l399 26v60q0 107-48.5 148T605 829q-106 0-159.5-27.5T384 708q-3-22-28-22H202q-30 0-29 30 10 294 437 294 123 0 208-24t134.5-73 71-116 21.5-161V269q0-56 8.5-79.5T1083 152zm-567-4h31q73 0 134 21t104 71.5T828 365v71l-342-25q-147-11-147-129 0-134 177-134z"/><glyph glyph-name="ae" unicode="æ" vert-adv-y="1980" d="M906 151q55 0 95.5 20t80.5 60l91-109Q1073-26 890-26q-192 0-276 169Q505-26 324-26q-124 0-201.5 77T45 270q0 129 69 209.5T331 560h204v87q0 100-35.5 142T390 831q-65 0-100.5-31T249 697q-2-23-28-23H114q-14 0-22 8t-7 23q12 307 305 307 184 0 247-133 84 133 240 133 308 0 308-498 0-59-16-79.5t-71-20.5H697q8-127 56-195t153-68zm-38 680q-82 0-122.5-70T697 560h321q2 133-33.5 202T868 831zM535 279v135H365q-143 0-143-127 0-60 32-95t101-35q133 0 180 122z"/><glyph glyph-name="ccedilla" unicode="ç" vert-adv-y="1980" d="M944 312l112-76q26-19 9-41-55-87-144-143.5T720-20l-54-51q71-6 121.5-48.5T838-232q0-82-50.5-132.5t-124-64.5-157.5 0q-18 3-18 22v79q0 10 6 15.5t16 4.5q80-12 125.5 6.5T681-243q0 23-23 40t-60.5 19.5T512-200q-10-4-17-.5t-7 14.5v80q0 12 10 24l63 63Q370 9 249.5 150.5T129 493q0 224 146.5 370.5T644 1010q138 0 247-59t174-161q17-23-10-41l-111-76q-21-15-40 7-94 124-253 124-133 0-219.5-86.5T345 493t86.5-225T651 181q159 0 253 124 19 22 40 7z"/><glyph glyph-name="egrave" unicode="è" vert-adv-y="1980" d="M506 1219l-120 252q-7 16 0 25t24 9h138q23 0 34-24l120-252q7-16 0-25t-24-9H540q-23 0-34 24zm599-690q0-51-16.5-72.5T1020 435H338q7-132 97-206t240-74q139 0 246 63 22 13 38 8t40-35q27-33 29.5-52.5T1007 96Q950 40 856.5 7.5T652-25q-238 0-382.5 143.5T125 495q0 230 139.5 372.5T630 1010q221 0 348-134.5T1105 529zM630 820q-116-1-190.5-60.5T345 589h563q-12 112-85.5 172.5T630 820z"/><glyph glyph-name="eacute" unicode="é" vert-adv-y="1980" d="M690 1195H552q-17 0-24 9t0 25l120 252q11 24 34 24h138q17 0 24-9t0-25l-120-252q-11-24-34-24zm415-666q0-51-16.5-72.5T1020 435H338q7-132 97-206t240-74q139 0 246 63 22 13 38 8t40-35q27-33 29.5-52.5T1007 96Q950 40 856.5 7.5T652-25q-238 0-382.5 143.5T125 495q0 230 139.5 372.5T630 1010q221 0 348-134.5T1105 529zM630 820q-116-1-190.5-60.5T345 589h563q-12 112-85.5 172.5T630 820z"/><glyph glyph-name="ecircumflex" unicode="ê" vert-adv-y="1980" d="M428 1192H264q-19 0-24 11t7 25l222 261q15 16 36 16h220q21 0 36-16l222-261q12-14 7-25t-24-11H802q-23 0-36 16l-151 170-151-170q-13-16-36-16zm677-663q0-51-16.5-72.5T1020 435H338q7-132 97-206t240-74q139 0 246 63 22 13 38 8t40-35q27-33 29.5-52.5T1007 96Q950 40 856.5 7.5T652-25q-238 0-382.5 143.5T125 495q0 230 139.5 372.5T630 1010q221 0 348-134.5T1105 529zM630 820q-116-1-190.5-60.5T345 589h563q-12 112-85.5 172.5T630 820z"/><glyph glyph-name="edieresis" unicode="ë" vert-adv-y="1980" d="M411 1271q-48 0-82 34.5t-34 83.5q0 48 34.5 82t81.5 34q48 0 82.5-34t34.5-82q0-49-34.5-83.5T411 1271zm408 0q-48 0-82 34.5t-34 83.5q0 48 34.5 82t81.5 34q48 0 82.5-34t34.5-82q0-49-34.5-83.5T819 1271zm286-742q0-51-16.5-72.5T1020 435H338q7-132 97-206t240-74q139 0 246 63 22 13 38 8t40-35q27-33 29.5-52.5T1007 96Q950 40 856.5 7.5T652-25q-238 0-382.5 143.5T125 495q0 230 139.5 372.5T630 1010q221 0 348-134.5T1105 529zM630 820q-116-1-190.5-60.5T345 589h563q-12 112-85.5 172.5T630 820z"/><glyph glyph-name="igrave" unicode="ì" vert-adv-y="1980" d="M496 1219l-120 252q-7 16 0 25t24 9h138q23 0 34-24l120-252q7-16 0-25t-24-9H530q-23 0-34 24zM883 186h161q14 0 22-8t8-22V30q0-14-8-22t-22-8H801Q661 0 586.5 78.5T512 299v505H191q-13 0-21.5 8t-8.5 22v126q0 14 8.5 22t21.5 8h513q14 0 22-8t8-22V336q0-150 149-150z"/><glyph glyph-name="iacute" unicode="í" vert-adv-y="1980" d="M680 1195H542q-17 0-24 9t0 25l120 252q11 24 34 24h138q17 0 24-9t0-25l-120-252q-11-24-34-24zM883 186h161q14 0 22-8t8-22V30q0-14-8-22t-22-8H801Q661 0 586.5 78.5T512 299v505H191q-13 0-21.5 8t-8.5 22v126q0 14 8.5 22t21.5 8h513q14 0 22-8t8-22V336q0-150 149-150z"/><glyph glyph-name="icircumflex" unicode="î" vert-adv-y="1980" d="M418 1192H254q-19 0-24 11t7 25l222 261q15 16 36 16h220q21 0 36-16l222-261q12-14 7-25t-24-11H792q-23 0-36 16l-151 170-151-170q-13-16-36-16zM883 186h161q14 0 22-8t8-22V30q0-14-8-22t-22-8H801Q661 0 586.5 78.5T512 299v505H191q-13 0-21.5 8t-8.5 22v126q0 14 8.5 22t21.5 8h513q14 0 22-8t8-22V336q0-150 149-150z"/><glyph glyph-name="idieresis" unicode="ï" vert-adv-y="1980" d="M401 1271q-48 0-82 34.5t-34 83.5q0 48 34.5 82t81.5 34q48 0 82.5-34t34.5-82q0-49-34.5-83.5T401 1271zm408 0q-48 0-82 34.5t-34 83.5q0 48 34.5 82t81.5 34q48 0 82.5-34t34.5-82q0-49-34.5-83.5T809 1271zm74-1085h161q14 0 22-8t8-22V30q0-14-8-22t-22-8H801Q661 0 586.5 78.5T512 299v505H191q-13 0-21.5 8t-8.5 22v126q0 14 8.5 22t21.5 8h513q14 0 22-8t8-22V336q0-150 149-150z"/><glyph glyph-name="eth" unicode="ð" vert-adv-y="1980" d="M1095 1268l74 8q32 5 32-26v-67q0-28-28-31l-78-9V30q0-14-8.5-22T1065 0H923q-27 0-30 30l-12 157h-24Q821 92 735.5 33.5T527-25q-197 0-316.5 145.5T91 489q0 230 129.5 375.5T569 1010q202 0 304-131v239l-180-20q-32-3-32 27v67q0 27 28 30l184 21v127q0 14 8.5 22t21.5 8h162q13 0 21.5-8t8.5-22v-102zM596 180q131 0 209.5 85T884 493t-78.5 227.5T596 805t-210-84.5T307 493t79-228 210-85z"/><glyph glyph-name="ntilde" unicode="ñ" vert-adv-y="1980" d="M351 1297h-85q-20 0-20 25 1 91 61.5 139.5T452 1510q56 0 103-23t74.5-50 64-50 72.5-23 59 18 33 43q6 17 22 17h86q20 0 20-21-2-94-62.5-143T779 1229q-55 0-102 22.5t-75 50-64.5 50T465 1374q-68 0-92-60-6-17-22-17zm362-287q162 0 263-110.5T1077 596V30q0-14-8.5-22T1047 0H885q-13 0-21.5 8T855 30v525q0 115-63.5 182.5T616 805t-176.5-68T375 555V30q0-14-8.5-22T345 0H183q-13 0-21.5 8T153 30v930q0 14 8.5 22t21.5 8h154q28 0 30-30l8-142h28q39 86 119 139t191 53z"/><glyph glyph-name="ograve" unicode="ò" vert-adv-y="1980" d="M678 1195H540q-23 0-34 24l-120 252q-7 16 0 25t24 9h138q23 0 34-24l120-252q7-16 0-25t-24-9zM615-25q-220 0-363.5 148T108 493t143.5 369.5T615 1010t363.5-147.5T1122 493 978.5 123 615-25zm0 206q128 0 209.5 86.5T906 493t-81.5 225T615 804t-209.5-86T324 493t81.5-225.5T615 181z"/><glyph glyph-name="oacute" unicode="ó" vert-adv-y="1980" d="M690 1195H552q-17 0-24 9t0 25l120 252q11 24 34 24h138q17 0 24-9t0-25l-120-252q-11-24-34-24zM615-25q-220 0-363.5 148T108 493t143.5 369.5T615 1010t363.5-147.5T1122 493 978.5 123 615-25zm0 206q128 0 209.5 86.5T906 493t-81.5 225T615 804t-209.5-86T324 493t81.5-225.5T615 181z"/><glyph glyph-name="ocircumflex" unicode="ô" vert-adv-y="1980" d="M428 1192H264q-19 0-24 11t7 25l222 261q15 16 36 16h220q21 0 36-16l222-261q12-14 7-25t-24-11H802q-23 0-36 16l-151 170-151-170q-13-16-36-16zM615-25q-220 0-363.5 148T108 493t143.5 369.5T615 1010t363.5-147.5T1122 493 978.5 123 615-25zm0 206q128 0 209.5 86.5T906 493t-81.5 225T615 804t-209.5-86T324 493t81.5-225.5T615 181z"/><glyph glyph-name="otilde" unicode="õ" vert-adv-y="1980" d="M779 1229q-55 0-102 22.5t-75 50-64.5 50T465 1374q-68 0-92-60-6-17-22-17h-85q-20 0-20 25 1 91 61.5 139.5T452 1510q56 0 103-23t74.5-50 64-50 72.5-23 59 18 33 43q6 17 22 17h86q20 0 20-21-2-94-62.5-143T779 1229zM615-25q-220 0-363.5 148T108 493t143.5 369.5T615 1010t363.5-147.5T1122 493 978.5 123 615-25zm0 206q128 0 209.5 86.5T906 493t-81.5 225T615 804t-209.5-86T324 493t81.5-225.5T615 181z"/><glyph glyph-name="odieresis" unicode="ö" vert-adv-y="1980" d="M411 1271q-48 0-82 34.5t-34 83.5q0 48 34.5 82t81.5 34q48 0 82.5-34t34.5-82q0-49-34.5-83.5T411 1271zm408 0q-48 0-82 34.5t-34 83.5q0 48 34.5 82t81.5 34q48 0 82.5-34t34.5-82q0-49-34.5-83.5T819 1271zM615-25q-220 0-363.5 148T108 493t143.5 369.5T615 1010t363.5-147.5T1122 493 978.5 123 615-25zm0 206q128 0 209.5 86.5T906 493t-81.5 225T615 804t-209.5-86T324 493t81.5-225.5T615 181z"/><glyph glyph-name="divide" unicode="÷" vert-adv-y="1980" d="M615 932q-73 0-125 52t-52 125q0 74 51.5 126t125.5 52 125.5-52 51.5-126q0-73-52-125t-125-52zm466-376H149q-13 0-21.5 8t-8.5 22v111q0 13 8.5 21.5T149 727h932q13 0 21.5-8.5t8.5-21.5V586q0-14-8.5-22t-21.5-8zM615-5q-73 0-125 51.5T438 172t51.5 125.5T615 349t125.5-51.5T792 172 740 46.5 615-5z"/><glyph glyph-name="oslash" unicode="ø" vert-adv-y="1980" d="M980 1080l-76-156q102-68 160-181t58-250q0-222-143.5-370T615-25q-87 0-162 24l-57-117q-12-22-34-22h-90q-17 0-23.5 10t1.5 26l79 163q-103 68-162 182t-59 252q0 222 143.5 369.5T615 1010q85 0 165-25l53 109q12 22 34 22h91q17 0 23.5-10t-1.5-26zM324 493q0-154 99-242l265 545q-37 8-73 8-128 0-209.5-86T324 493zm291-312q128 0 209.5 86.5T906 493q0 151-96 239L545 189q37-8 70-8z"/><glyph glyph-name="ugrave" unicode="ù" vert-adv-y="1980" d="M506 1219l-120 252q-7 16 0 25t24 9h138q23 0 34-24l120-252q7-16 0-25t-24-9H540q-23 0-34 24zm379-229h162q13 0 21.5-8t8.5-22V30q0-14-8.5-22T1047 0H893q-28 0-30 30l-8 142h-28Q788 86 708 33T517-20Q355-20 254 90.5T153 394v566q0 14 8.5 22t21.5 8h162q13 0 21.5-8t8.5-22V435q0-115 63.5-182.5T614 185t176.5 68T855 435v525q0 14 8.5 22t21.5 8z"/><glyph glyph-name="uacute" unicode="ú" vert-adv-y="1980" d="M690 1195H552q-17 0-24 9t0 25l120 252q11 24 34 24h138q17 0 24-9t0-25l-120-252q-11-24-34-24zm195-205h162q13 0 21.5-8t8.5-22V30q0-14-8.5-22T1047 0H893q-28 0-30 30l-8 142h-28Q788 86 708 33T517-20Q355-20 254 90.5T153 394v566q0 14 8.5 22t21.5 8h162q13 0 21.5-8t8.5-22V435q0-115 63.5-182.5T614 185t176.5 68T855 435v525q0 14 8.5 22t21.5 8z"/><glyph glyph-name="ucircumflex" unicode="û" vert-adv-y="1980" d="M428 1192H264q-19 0-24 11t7 25l222 261q15 16 36 16h220q21 0 36-16l222-261q12-14 7-25t-24-11H802q-23 0-36 16l-151 170-151-170q-13-16-36-16zm457-202h162q13 0 21.5-8t8.5-22V30q0-14-8.5-22T1047 0H893q-28 0-30 30l-8 142h-28Q788 86 708 33T517-20Q355-20 254 90.5T153 394v566q0 14 8.5 22t21.5 8h162q13 0 21.5-8t8.5-22V435q0-115 63.5-182.5T614 185t176.5 68T855 435v525q0 14 8.5 22t21.5 8z"/><glyph glyph-name="udieresis" unicode="ü" vert-adv-y="1980" d="M411 1271q-48 0-82 34.5t-34 83.5q0 48 34.5 82t81.5 34q48 0 82.5-34t34.5-82q0-49-34.5-83.5T411 1271zm408 0q-48 0-82 34.5t-34 83.5q0 48 34.5 82t81.5 34q48 0 82.5-34t34.5-82q0-49-34.5-83.5T819 1271zm66-281h162q13 0 21.5-8t8.5-22V30q0-14-8.5-22T1047 0H893q-28 0-30 30l-8 142h-28Q788 86 708 33T517-20Q355-20 254 90.5T153 394v566q0 14 8.5 22t21.5 8h162q13 0 21.5-8t8.5-22V435q0-115 63.5-182.5T614 185t176.5 68T855 435v525q0 14 8.5 22t21.5 8z"/><glyph glyph-name="yacute" unicode="ý" vert-adv-y="1980" d="M690 1195H552q-17 0-24 9t0 25l120 252q11 24 34 24h138q17 0 24-9t0-25l-120-252q-11-24-34-24zm245-205h162q17 0 24-9t0-25L584-356q-9-24-36-24H386q-17 0-24 9t0 25L504-2 109 956q-7 16 0 25t24 9h162q27 0 36-24l284-716 284 716q9 24 36 24z"/><glyph glyph-name="thorn" unicode="þ" vert-adv-y="1980" d="M1043 813q90-135 90-324 0-223-119.5-368.5T697-25h-19q-114 0-191.5 46T369 144h-24v-494q0-14-8.5-22t-21.5-8H159q-13 0-21.5 8t-8.5 22v1720q0 14 8.5 22t21.5 8h162q13 0 21.5-8t8.5-22V879q102 131 304 131h23q120 0 213.5-52T1043 813zM340 492q1-142 79-227t208-85 207.5 85T912 493t-77.5 227.5T627 805t-208.5-84.5T340 493v-1z"/><glyph glyph-name="ydieresis" unicode="ÿ" vert-adv-y="1980" d="M411 1271q-48 0-82 34.5t-34 83.5q0 48 34.5 82t81.5 34q48 0 82.5-34t34.5-82q0-49-34.5-83.5T411 1271zm408 0q-48 0-82 34.5t-34 83.5q0 48 34.5 82t81.5 34q48 0 82.5-34t34.5-82q0-49-34.5-83.5T819 1271zm116-281h162q17 0 24-9t0-25L584-356q-9-24-36-24H386q-17 0-24 9t0 25L504-2 109 956q-7 16 0 25t24 9h162q27 0 36-24l284-716 284 716q9 24 36 24z"/><glyph glyph-name="Amacron" unicode="Ā" vert-adv-y="1980" d="M877 1679H353q-13 0-21.5 8.5T323 1709v116q0 13 8.5 21.5t21.5 8.5h524q13 0 21.5-8.5t8.5-21.5v-116q0-13-8.5-21.5T877 1679zm-84-363L1159 34q9-34-24-34H964q-29 0-34 24l-69 252H369L300 24q-5-24-34-24H95Q62 0 71 34l366 1282q7 24 35 24h286q28 0 35-24zm-198-214L423 475h384l-172 627h-40z"/><glyph glyph-name="amacron" unicode="ā" vert-adv-y="1980" d="M885 1329H361q-13 0-21.5 8.5T331 1359v116q0 13 8.5 21.5t21.5 8.5h524q13 0 21.5-8.5t8.5-21.5v-116q0-13-8.5-21.5T885 1329zm198-1177q22-14 30.5-26.5T1122 89V60q0-75-104-75-72 0-119 44.5T852 156v29h-11Q809 94 719 34.5T491-25h-49q-151 0-235.5 77.5T122 268q0 127 76 201.5T429 554l399 26v60q0 107-48.5 148T605 829q-106 0-159.5-27.5T384 708q-3-22-28-22H202q-30 0-29 30 10 294 437 294 123 0 208-24t134.5-73 71-116 21.5-161V269q0-56 8.5-79.5T1083 152zm-567-4h31q73 0 134 21t104 71.5T828 365v71l-342-25q-147-11-147-129 0-134 177-134z"/><glyph glyph-name="Abreve" unicode="Ă" vert-adv-y="1980" d="M615 1551q-135 0-217.5 77T303 1823q-3 32 29 32h89q25 0 32-30 12-53 54.5-89t107.5-36 107.5 36 54.5 89q7 30 32 30h89q32 0 29-32-12-118-94.5-195T615 1551zm178-235L1159 34q9-34-24-34H964q-29 0-34 24l-69 252H369L300 24q-5-24-34-24H95Q62 0 71 34l366 1282q7 24 35 24h286q28 0 35-24zm-198-214L423 475h384l-172 627h-40z"/><glyph glyph-name="abreve" unicode="ă" vert-adv-y="1980" d="M623 1201q-135 0-217.5 77T311 1473q-3 32 29 32h89q25 0 32-30 12-53 54.5-89t107.5-36 107.5 36 54.5 89q7 30 32 30h89q32 0 29-32-12-118-94.5-195T623 1201zm460-1049q22-14 30.5-26.5T1122 89V60q0-75-104-75-72 0-119 44.5T852 156v29h-11Q809 94 719 34.5T491-25h-49q-151 0-235.5 77.5T122 268q0 127 76 201.5T429 554l399 26v60q0 107-48.5 148T605 829q-106 0-159.5-27.5T384 708q-3-22-28-22H202q-30 0-29 30 10 294 437 294 123 0 208-24t134.5-73 71-116 21.5-161V269q0-56 8.5-79.5T1083 152zm-567-4h31q73 0 134 21t104 71.5T828 365v71l-342-25q-147-11-147-129 0-134 177-134z"/><glyph glyph-name="Aogonek" unicode="Ą" vert-adv-y="1980" d="M793 1316L1159 34q9-34-24-34h-61Q886 0 886-119q0-53 39.5-82.5T1038-231h33q20 0 20-20v-101q0-20-20-20h-58q-51 0-98 10t-93 33-73.5 69T721-149q0 172 196 222l-56 203H369L300 24q-5-24-34-24H95Q62 0 71 34l366 1282q7 24 35 24h286q28 0 35-24zm-198-214L423 475h384l-172 627h-40z"/><glyph glyph-name="aogonek" unicode="ą" vert-adv-y="1980" d="M1083 152q22-14 30.5-26.5T1122 89V60q0-68-89-74v-1q-188 0-188-120 0-53 39.5-82T997-246h33q20 0 20-20v-101q0-20-20-20h-58q-51 0-98 10t-93 33-73.5 69T680-164Q680 9 877 57q-25 41-25 99v29h-11Q809 94 719 34.5T491-25h-49q-151 0-235.5 77.5T122 268q0 127 76 201.5T429 554l399 26v60q0 107-48.5 148T605 829q-106 0-159.5-27.5T384 708q-3-22-28-22H202q-30 0-29 30 10 294 437 294 123 0 208-24t134.5-73 71-116 21.5-161V269q0-56 8.5-79.5T1083 152zm-567-4h31q73 0 134 21t104 71.5T828 365v71l-342-25q-147-11-147-129 0-134 177-134z"/><glyph glyph-name="Cacute" unicode="Ć" vert-adv-y="1980" d="M708 1545H570q-17 0-24 9t0 25l120 252q11 24 34 24h138q17 0 24-9t0-25l-120-252q-11-24-34-24zM633-30q-272 0-396 161.5T113 665q0 373 124 534t396 161q108 0 189-24t145.5-78.5 101.5-151 44-234.5q2-33-27-33H930q-28 0-31 26-10 84-33 139.5t-59.5 84-77 39.5-96.5 11q-59 0-102-11.5t-81-43-62-84T350.5 864 337 665t13.5-199T388 329.5t62-84 81-43T633 191q116 0 181.5 47T899 408q3 26 31 26h156q29 0 27-33-7-117-44-201.5t-101-134T821.5-7 633-30z"/><glyph glyph-name="cacute" unicode="ć" vert-adv-y="1980" d="M728 1195H590q-17 0-24 9t0 25l120 252q11 24 34 24h138q17 0 24-9t0-25l-120-252q-11-24-34-24zM651 181q159 0 253 124 19 22 40 7l112-76q26-19 9-41-65-102-174.5-161T644-25q-222 0-368.5 147T129 493t146.5 370.5T644 1010q138 0 247-59t174-161q17-23-10-41l-111-76q-21-15-40 7-94 124-253 124-133 0-219.5-86.5T345 493t86.5-225T651 181z"/><glyph glyph-name="Cdotaccent" unicode="Ċ" vert-adv-y="1980" d="M632 1621q-48 0-82.5 34.5T515 1739q0 48 34.5 82t82.5 34 82.5-34 34.5-82q0-49-34.5-83.5T632 1621zm1-1651q-272 0-396 161.5T113 665q0 373 124 534t396 161q108 0 189-24t145.5-78.5 101.5-151 44-234.5q2-33-27-33H930q-28 0-31 26-10 84-33 139.5t-59.5 84-77 39.5-96.5 11q-59 0-102-11.5t-81-43-62-84T350.5 864 337 665t13.5-199T388 329.5t62-84 81-43T633 191q116 0 181.5 47T899 408q3 26 31 26h156q29 0 27-33-7-117-44-201.5t-101-134T821.5-7 633-30z"/><glyph glyph-name="cdotaccent" unicode="ċ" vert-adv-y="1980" d="M653 1271q-48 0-82.5 34.5T536 1389q0 48 34.5 82t82.5 34 82.5-34 34.5-82q0-49-34.5-83.5T653 1271zm-2-1090q159 0 253 124 19 22 40 7l112-76q26-19 9-41-65-102-174.5-161T644-25q-222 0-368.5 147T129 493t146.5 370.5T644 1010q138 0 247-59t174-161q17-23-10-41l-111-76q-21-15-40 7-94 124-253 124-133 0-219.5-86.5T345 493t86.5-225T651 181z"/><glyph glyph-name="Ccaron" unicode="Č" vert-adv-y="1980" d="M742 1542H522q-21 0-36 16l-222 261q-12 14-7 25t24 11h164q23 0 36-16l151-171 151 171q13 16 36 16h164q19 0 24-11t-7-25l-222-261q-15-16-36-16zM633-30q-272 0-396 161.5T113 665q0 373 124 534t396 161q108 0 189-24t145.5-78.5 101.5-151 44-234.5q2-33-27-33H930q-28 0-31 26-10 84-33 139.5t-59.5 84-77 39.5-96.5 11q-59 0-102-11.5t-81-43-62-84T350.5 864 337 665t13.5-199T388 329.5t62-84 81-43T633 191q116 0 181.5 47T899 408q3 26 31 26h156q29 0 27-33-7-117-44-201.5t-101-134T821.5-7 633-30z"/><glyph glyph-name="ccaron" unicode="č" vert-adv-y="1980" d="M763 1192H543q-21 0-36 16l-222 261q-12 14-7 25t24 11h164q23 0 36-16l151-171 151 171q13 16 36 16h164q19 0 24-11t-7-25l-222-261q-15-16-36-16zM651 181q159 0 253 124 19 22 40 7l112-76q26-19 9-41-65-102-174.5-161T644-25q-222 0-368.5 147T129 493t146.5 370.5T644 1010q138 0 247-59t174-161q17-23-10-41l-111-76q-21-15-40 7-94 124-253 124-133 0-219.5-86.5T345 493t86.5-225T651 181z"/><glyph glyph-name="Dcaron" unicode="Ď" vert-adv-y="1980" d="M725 1542H505q-21 0-36 16l-222 261q-12 14-7 25t24 11h164q23 0 36-16l151-171 151 171q13 16 36 16h164q19 0 24-11t-7-25l-222-261q-15-16-36-16zM559 0H163q-13 0-21.5 8T133 30v1280q0 14 8.5 22t21.5 8h396q132 0 232-32.5t164.5-89.5 105-142.5T1117 892t16-222-16-222-56.5-183.5-105-142.5T791 32.5 559 0zM363 1134V206h188q86 0 148 21t100.5 58 61 97T891 509.5t8 160.5-8 160.5T860.5 958t-61 97-100.5 58-148 21H363z"/><glyph glyph-name="dcaron" unicode="ď" vert-adv-y="1980" d="M1383 1649h138q17 0 24-9t0-25l-120-252q-11-24-34-24h-138q-17 0-24 9t0 25l120 252q11 24 34 24zm-480-249h162q13 0 21.5-8t8.5-22V30q0-14-8.5-22T1065 0H923q-27 0-30 30l-12 157h-24Q821 92 735.5 33.5T527-25q-197 0-316.5 145.5T91 489q0 230 129.5 375.5T569 1010q202 0 304-131v491q0 14 8.5 22t21.5 8zM596 180q131 0 209.5 85T884 493t-78.5 227.5T596 805t-210-84.5T307 493t79-228 210-85z"/><glyph glyph-name="Dcroat" unicode="Đ" vert-adv-y="1980" d="M177 1340h396q132 0 232-32.5t164.5-89.5 105-142.5T1131 892t16-222-16-222-56.5-183.5-105-142.5T805 32.5 573 0H177q-13 0-21.5 8T147 30v552H91q-13 0-21.5 8T61 612v116q0 14 8.5 22t21.5 8h56v552q0 14 8.5 22t21.5 8zM377 206h188q86 0 148 21t100.5 58 61 97T905 509.5t8 160.5-8 160.5T874.5 958t-61 97-100.5 58-148 21H377V758h238q13 0 21.5-8t8.5-22V612q0-14-8.5-22t-21.5-8H377V206z"/><glyph glyph-name="dcroat" unicode="đ" vert-adv-y="1980" d="M1095 1262h60q13 0 21.5-8t8.5-22v-66q0-14-8.5-22t-21.5-8h-60V30q0-14-8.5-22T1065 0H923q-27 0-30 30l-12 157h-24Q821 92 735.5 33.5T527-25q-197 0-316.5 145.5T91 489q0 230 129.5 375.5T569 1010q202 0 304-131v257H601q-13 0-21.5 8t-8.5 22v66q0 14 8.5 22t21.5 8h272v108q0 14 8.5 22t21.5 8h162q13 0 21.5-8t8.5-22v-108zM596 180q131 0 209.5 85T884 493t-78.5 227.5T596 805t-210-84.5T307 493t79-228 210-85z"/><glyph glyph-name="Emacron" unicode="Ē" vert-adv-y="1980" d="M877 1679H353q-13 0-21.5 8.5T323 1709v116q0 13 8.5 21.5t21.5 8.5h524q13 0 21.5-8.5t8.5-21.5v-116q0-13-8.5-21.5T877 1679zM1041 0H189q-13 0-21.5 8T159 30v1280q0 14 8.5 22t21.5 8h850q13 0 21.5-8t8.5-22v-146q0-14-8.5-22t-21.5-8H389V781h605q14 0 22-8.5t8-21.5V605q0-13-8-21.5t-22-8.5H389V206h652q13 0 21.5-8t8.5-22V30q0-14-8.5-22T1041 0z"/><glyph glyph-name="emacron" unicode="ē" vert-adv-y="1980" d="M877 1329H353q-13 0-21.5 8.5T323 1359v116q0 13 8.5 21.5t21.5 8.5h524q13 0 21.5-8.5t8.5-21.5v-116q0-13-8.5-21.5T877 1329zm228-800q0-51-16.5-72.5T1020 435H338q7-132 97-206t240-74q139 0 246 63 22 13 38 8t40-35q27-33 29.5-52.5T1007 96Q950 40 856.5 7.5T652-25q-238 0-382.5 143.5T125 495q0 230 139.5 372.5T630 1010q221 0 348-134.5T1105 529zM630 820q-116-1-190.5-60.5T345 589h563q-12 112-85.5 172.5T630 820z"/><glyph glyph-name="Edotaccent" unicode="Ė" vert-adv-y="1980" d="M615 1621q-48 0-82.5 34.5T498 1739q0 48 34.5 82t82.5 34 82.5-34 34.5-82q0-49-34.5-83.5T615 1621zM1041 0H189q-13 0-21.5 8T159 30v1280q0 14 8.5 22t21.5 8h850q13 0 21.5-8t8.5-22v-146q0-14-8.5-22t-21.5-8H389V781h605q14 0 22-8.5t8-21.5V605q0-13-8-21.5t-22-8.5H389V206h652q13 0 21.5-8t8.5-22V30q0-14-8.5-22T1041 0z"/><glyph glyph-name="edotaccent" unicode="ė" vert-adv-y="1980" d="M615 1271q-48 0-82.5 34.5T498 1389q0 48 34.5 82t82.5 34 82.5-34 34.5-82q0-49-34.5-83.5T615 1271zm490-742q0-51-16.5-72.5T1020 435H338q7-132 97-206t240-74q139 0 246 63 22 13 38 8t40-35q27-33 29.5-52.5T1007 96Q950 40 856.5 7.5T652-25q-238 0-382.5 143.5T125 495q0 230 139.5 372.5T630 1010q221 0 348-134.5T1105 529zM630 820q-116-1-190.5-60.5T345 589h563q-12 112-85.5 172.5T630 820z"/><glyph glyph-name="Eogonek" unicode="Ę" vert-adv-y="1980" d="M1051 1V0Q863 0 863-119q0-53 39.5-82.5T1015-231h33q20 0 20-20v-101q0-20-20-20h-58q-51 0-98 10t-93 33-73.5 69T698-149q0 92 57 149H189q-13 0-21.5 8T159 30v1280q0 14 8.5 22t21.5 8h850q13 0 21.5-8t8.5-22v-146q0-14-8.5-22t-21.5-8H389V781h605q14 0 22-8.5t8-21.5V605q0-13-8-21.5t-22-8.5H389V206h652q13 0 21.5-8t8.5-22V30q0-22-20-29z"/><glyph glyph-name="eogonek" unicode="ę" vert-adv-y="1980" d="M1105 529q0-51-16.5-72.5T1020 435H338q7-132 97-206t240-74q139 0 246 63 22 13 38 8t40-35q27-33 29.5-52.5T1007 96Q912 4 741-19q-64-19-93.5-46.5T618-139q0-107 146-107h39q20 0 20-20v-101q0-20-20-20h-58q-51 0-98 9.5T554-346t-73.5 66T453-175q0 110 94 158-194 31-308 168.5T125 495q0 230 139.5 372.5T630 1010q221 0 348-134.5T1105 529zM630 820q-116-1-190.5-60.5T345 589h563q-12 112-85.5 172.5T630 820z"/><glyph glyph-name="Ecaron" unicode="Ě" vert-adv-y="1980" d="M725 1542H505q-21 0-36 16l-222 261q-12 14-7 25t24 11h164q23 0 36-16l151-171 151 171q13 16 36 16h164q19 0 24-11t-7-25l-222-261q-15-16-36-16zM1041 0H189q-13 0-21.5 8T159 30v1280q0 14 8.5 22t21.5 8h850q13 0 21.5-8t8.5-22v-146q0-14-8.5-22t-21.5-8H389V781h605q14 0 22-8.5t8-21.5V605q0-13-8-21.5t-22-8.5H389V206h652q13 0 21.5-8t8.5-22V30q0-14-8.5-22T1041 0z"/><glyph glyph-name="ecaron" unicode="ě" vert-adv-y="1980" d="M469 1208l-222 261q-12 14-7 25t24 11h164q23 0 36-16l151-171 151 171q13 16 36 16h164q19 0 24-11t-7-25l-222-261q-15-16-36-16H505q-21 0-36 16zm636-679q0-51-16.5-72.5T1020 435H338q7-132 97-206t240-74q139 0 246 63 22 13 38 8t40-35q27-33 29.5-52.5T1007 96Q950 40 856.5 7.5T652-25q-238 0-382.5 143.5T125 495q0 230 139.5 372.5T630 1010q221 0 348-134.5T1105 529zM630 820q-116-1-190.5-60.5T345 589h563q-12 112-85.5 172.5T630 820z"/><glyph glyph-name="Gbreve" unicode="Ğ" vert-adv-y="1980" d="M625 1551q-135 0-217.5 77T313 1823q-3 32 29 32h89q25 0 32-30 12-53 54.5-89t107.5-36 107.5 36 54.5 89q7 30 32 30h89q32 0 29-32-12-118-94.5-195T625 1551zm472-840q13 0 21.5-8.5t8.5-21.5V536q0-296-117.5-431T635-30q-273 0-397.5 161.5T113 665q0 373 124 534t396 161q108 0 189-22.5t145.5-74T1069 1122t44-219q2-33-28-33H930q-29 0-33 26-17 139-83.5 191T633 1139q-59 0-102-11.5t-81-43-62-84T350.5 864 337 665q0-143 19.5-238t61-146 93.5-70.5T640 191q70 0 117.5 14.5T841 257t52.5 103T910 525v4H601q-13 0-21.5 8.5T571 559v122q0 13 8.5 21.5T601 711h496z"/><glyph glyph-name="gbreve" unicode="ğ" vert-adv-y="1980" d="M615 1201q-135 0-217.5 77T303 1473q-3 32 29 32h89q25 0 32-30 12-53 54.5-89t107.5-36 107.5 36 54.5 89q7 30 32 30h89q32 0 29-32-12-118-94.5-195T615 1201zm307-211h148q14 0 22-8t8-22V56q0-105-32-186.5T985-261t-122.5-80.5-142.5-43T569-396q-229 0-359 83-22 12-12 39l37 107q9 26 38 16 123-56 275-56 56 0 102.5 6.5t92.5 25 77.5 48 51 79T891 67v181h-29q-31-91-118-144T538 51q-191 0-311.5 134T106 522q0 212 127.5 350T561 1010q208 0 326-159l5 109q3 30 30 30zM602 242q123 0 201.5 79.5T882 526q0 124-78.5 202T602 806t-201-78-78-202q0-125 78-204.5T602 242z"/><glyph glyph-name="Gdotaccent" unicode="Ġ" vert-adv-y="1980" d="M625 1621q-48 0-82.5 34.5T508 1739q0 48 34.5 82t82.5 34 82.5-34 34.5-82q0-49-34.5-83.5T625 1621zm472-910q13 0 21.5-8.5t8.5-21.5V536q0-296-117.5-431T635-30q-273 0-397.5 161.5T113 665q0 373 124 534t396 161q108 0 189-22.5t145.5-74T1069 1122t44-219q2-33-28-33H930q-29 0-33 26-17 139-83.5 191T633 1139q-59 0-102-11.5t-81-43-62-84T350.5 864 337 665q0-143 19.5-238t61-146 93.5-70.5T640 191q70 0 117.5 14.5T841 257t52.5 103T910 525v4H601q-13 0-21.5 8.5T571 559v122q0 13 8.5 21.5T601 711h496z"/><glyph glyph-name="gdotaccent" unicode="ġ" vert-adv-y="1980" d="M615 1271q-48 0-82.5 34.5T498 1389q0 48 34.5 82t82.5 34 82.5-34 34.5-82q0-49-34.5-83.5T615 1271zm307-281h148q14 0 22-8t8-22V56q0-105-32-186.5T985-261t-122.5-80.5-142.5-43T569-396q-229 0-359 83-22 12-12 39l37 107q9 26 38 16 123-56 275-56 56 0 102.5 6.5t92.5 25 77.5 48 51 79T891 67v181h-29q-31-91-118-144T538 51q-191 0-311.5 134T106 522q0 212 127.5 350T561 1010q208 0 326-159l5 109q3 30 30 30zM602 242q123 0 201.5 79.5T882 526q0 124-78.5 202T602 806t-201-78-78-202q0-125 78-204.5T602 242z"/><glyph glyph-name="uni0122" unicode="Ģ" vert-adv-y="1980" d="M1097 711q13 0 21.5-8.5t8.5-21.5V536q0-296-117.5-431T635-30q-273 0-397.5 161.5T113 665q0 373 124 534t396 161q108 0 189-22.5t145.5-74T1069 1122t44-219q2-33-28-33H930q-29 0-33 26-17 139-83.5 191T633 1139q-59 0-102-11.5t-81-43-62-84T350.5 864 337 665q0-143 19.5-238t61-146 93.5-70.5T640 191q70 0 117.5 14.5T841 257t52.5 103T910 525v4H601q-13 0-21.5 8.5T571 559v122q0 13 8.5 21.5T601 711h496zM427-169h394q28 0 28-28v-68q0-265-31-420-4-21-32-21H674q-29 0-26 30 13 191 12 331H427q-12 0-19.5 7.5T400-317v120q0 13 7.5 20.5T427-169z"/><glyph glyph-name="uni0123" unicode="ģ" vert-adv-y="1980" d="M826 1196H432q-13 0-20.5 7.5T404 1223v68q0 261 32 421 4 21 32 21h111q29 0 27-30-15-181-12-331h232q28 0 28-28v-121q0-12-7.5-19.5T826 1196zm96-206h148q14 0 22-8t8-22V56q0-105-32-186.5T985-261t-122.5-80.5-142.5-43T569-396q-229 0-359 83-22 12-12 39l37 107q9 26 38 16 123-56 275-56 56 0 102.5 6.5t92.5 25 77.5 48 51 79T891 67v181h-29q-31-91-118-144T538 51q-191 0-311.5 134T106 522q0 212 127.5 350T561 1010q208 0 326-159l5 109q3 30 30 30zM602 242q123 0 201.5 79.5T882 526q0 124-78.5 202T602 806t-201-78-78-202q0-125 78-204.5T602 242z"/><glyph glyph-name="Hbar" unicode="Ħ" vert-adv-y="1980" d="M887 1340h170q13 0 21.5-8t8.5-22V30q0-14-8.5-22T1057 0H887q-13 0-21.5 8T857 30v528H373V30q0-14-8.5-22T343 0H173q-13 0-21.5 8T143 30v1280q0 14 8.5 22t21.5 8h170q13 0 21.5-8t8.5-22v-172h484v172q0 14 8.5 22t21.5 8zM373 948V764h484v184H373z"/><glyph glyph-name="hbar" unicode="ħ" vert-adv-y="1980" d="M713 1010q162 0 263-110.5T1077 596V30q0-14-8.5-22T1047 0H885q-13 0-21.5 8T855 30v525q0 115-63.5 182.5T616 805t-176.5-68T375 555V30q0-14-8.5-22T345 0H183q-13 0-21.5 8T153 30v1088H43q-13 0-21.5 8t-8.5 22v88q0 14 8.5 22t21.5 8h110v104q0 14 8.5 22t21.5 8h162q13 0 21.5-8t8.5-22v-104h336q13 0 21.5-8t8.5-22v-88q0-14-8.5-22t-21.5-8H375V818h28q39 86 119 139t191 53z"/><glyph glyph-name="Imacron" unicode="Ī" vert-adv-y="1980" d="M877 1679H353q-13 0-21.5 8.5T323 1709v116q0 13 8.5 21.5t21.5 8.5h524q13 0 21.5-8.5t8.5-21.5v-116q0-13-8.5-21.5T877 1679zM1068 0H162q-14 0-22 8t-8 22v146q0 14 8 22t22 8h338v928H162q-14 0-22 8t-8 22v146q0 14 8 22t22 8h906q14 0 22-8t8-22v-146q0-14-8-22t-22-8H730V206h338q14 0 22-8t8-22V30q0-14-8-22t-22-8z"/><glyph glyph-name="imacron" unicode="ī" vert-adv-y="1980" d="M867 1329H343q-13 0-21.5 8.5T313 1359v116q0 13 8.5 21.5t21.5 8.5h524q13 0 21.5-8.5t8.5-21.5v-116q0-13-8.5-21.5T867 1329zm16-1143h161q14 0 22-8t8-22V30q0-14-8-22t-22-8H801Q661 0 586.5 78.5T512 299v505H191q-13 0-21.5 8t-8.5 22v126q0 14 8.5 22t21.5 8h513q14 0 22-8t8-22V336q0-150 149-150z"/><glyph glyph-name="Iogonek" unicode="Į" vert-adv-y="1980" d="M1068 1134H730V206h338q14 0 22-8t8-22V30q0-14-8-22t-22-8H809Q621 0 621-119q0-53 39.5-82.5T773-231h33q20 0 20-20v-101q0-20-20-20h-58q-51 0-98 10t-93 33-73.5 69T456-149q0 92 57 149H162q-14 0-22 8t-8 22v146q0 14 8 22t22 8h338v928H162q-14 0-22 8t-8 22v146q0 14 8 22t22 8h906q14 0 22-8t8-22v-146q0-14-8-22t-22-8z"/><glyph glyph-name="iogonek" unicode="į" vert-adv-y="1980" d="M605 1271q-48 0-82.5 34.5T488 1389q0 48 34.5 82t82.5 34 82.5-34 34.5-82q0-49-34.5-83.5T605 1271zM883 186h161q14 0 22-8t8-22V30q0-14-8-22t-22-8H814Q626 0 626-119q0-53 39.5-82.5T778-231h33q20 0 20-20v-101q0-20-20-20h-58q-51 0-98 10t-93 33-73.5 69T461-149Q461 0 609 58q-97 76-97 241v505H191q-13 0-21.5 8t-8.5 22v126q0 14 8.5 22t21.5 8h513q14 0 22-8t8-22V336q0-150 149-150z"/><glyph glyph-name="Idotaccent" unicode="İ" vert-adv-y="1980" d="M615 1621q-48 0-82.5 34.5T498 1739q0 48 34.5 82t82.5 34 82.5-34 34.5-82q0-49-34.5-83.5T615 1621zM1068 0H162q-14 0-22 8t-8 22v146q0 14 8 22t22 8h338v928H162q-14 0-22 8t-8 22v146q0 14 8 22t22 8h906q14 0 22-8t8-22v-146q0-14-8-22t-22-8H730V206h338q14 0 22-8t8-22V30q0-14-8-22t-22-8z"/><glyph glyph-name="dotlessi" unicode="ı" vert-adv-y="1980" d="M883 186h161q14 0 22-8t8-22V30q0-14-8-22t-22-8H801Q661 0 586.5 78.5T512 299v505H191q-13 0-21.5 8t-8.5 22v126q0 14 8.5 22t21.5 8h513q14 0 22-8t8-22V336q0-150 149-150z"/><glyph glyph-name="IJ" unicode="Ĳ" vert-adv-y="1980" d="M105 1340h170q13 0 21.5-8t8.5-22V30q0-14-8.5-22T275 0H105Q92 0 83.5 8T75 30v1280q0 14 8.5 22t21.5 8zm1020 0q13 0 21.5-8t8.5-22V486q0-129-38-227.5t-104.5-158-151-89T677-18q-146 0-237 53-25 14-12 41l57 128q13 25 38 15 61-23 126-23 57 0 104.5 16.5t87.5 53T903 367t22 155v612H484q-14 0-22 8t-8 22v146q0 14 8 22t22 8h641z"/><glyph glyph-name="ij" unicode="ĳ" vert-adv-y="1980" d="M1024 1237q-59 0-100.5 41T882 1378t41.5 100.5T1024 1520t100-41.5 41-100.5-41-100-100-41zm-799-10q-59 0-100 41t-41 100 41 100.5 100 41.5 100.5-41.5T367 1368t-41.5-100-100.5-41zM306 6H144q-14 0-22 8t-8 22v930q0 14 8 22t22 8h162q14 0 22-8t8-22V36q0-14-8-22t-22-8zm409-391q-64 0-124 13t-102.5 33-72.5 42.5-41 44-3 35.5l64 104q16 25 46 6 103-72 216-72 45 0 83.5 11t74 37.5 56 77.5T932 70v734H482q-14 0-22 8t-8 22v126q0 14 8 22t22 8h642q14 0 22-8t8-22V47q0-98-28-175.5T1054.5-253t-103-78T834-373.5 715-385z"/><glyph glyph-name="uni0136" unicode="Ķ" vert-adv-y="1980" d="M650 728l499-692q11-15 5.5-25.5T1131 0H941q-23 0-36 18L513 559 349 358V30q0-14-8.5-22T319 0H149q-13 0-21.5 8T119 30v1280q0 14 8.5 22t21.5 8h170q13 0 21.5-8t8.5-22V675l509 649q12 16 36 16h208q19 0 23.5-11t-7.5-25zM414-169h394q28 0 28-28v-68q0-265-31-420-4-21-32-21H661q-29 0-26 30 13 191 12 331H414q-12 0-19.5 7.5T387-317v120q0 13 7.5 20.5T414-169z"/><glyph glyph-name="uni0137" unicode="ķ" vert-adv-y="1980" d="M687 556l424-520q12-15 6-25.5T1093 0H904q-19 0-36 18L550 408 393 240V30q0-14-8.5-22T363 0H201q-13 0-21.5 8T171 30v1340q0 14 8.5 22t21.5 8h162q13 0 21.5-8t8.5-22V516l413 458q15 16 37 16h200q20 0 24.5-10.5T1059 954zM414-169h394q28 0 28-28v-68q0-265-31-420-4-21-32-21H661q-29 0-26 30 13 191 12 331H414q-12 0-19.5 7.5T387-317v120q0 13 7.5 20.5T414-169z"/><glyph glyph-name="Lacute" unicode="Ĺ" vert-adv-y="1980" d="M351 1519H213q-17 0-24 9t0 25l120 252q11 24 34 24h138q17 0 24-9t0-25l-120-252q-11-24-34-24zM1056 0H204q-14 0-22 8t-8 22v1280q0 14 8 22t22 8h170q14 0 22-8t8-22V206h652q14 0 22-8t8-22V30q0-14-8-22t-22-8z"/><glyph glyph-name="lacute" unicode="ĺ" vert-adv-y="1980" d="M690 1617H552q-17 0-24 9t0 25l120 252q11 24 34 24h138q17 0 24-9t0-25l-120-252q-11-24-34-24zM1066 0H814Q670 0 587.5 86T505 319v895H159q-13 0-21.5 8t-8.5 22v126q0 14 8.5 22t21.5 8h538q13 0 21.5-8t8.5-22V350q0-76 43.5-120T890 186h176q14 0 22-8t8-22V30q0-14-8-22t-22-8z"/><glyph glyph-name="uni013B" unicode="Ļ" vert-adv-y="1980" d="M1056 0H204q-14 0-22 8t-8 22v1280q0 14 8 22t22 8h170q14 0 22-8t8-22V206h652q14 0 22-8t8-22V30q0-14-8-22t-22-8zM414-169h394q28 0 28-28v-68q0-265-31-420-4-21-32-21H661q-29 0-26 30 13 191 12 331H414q-12 0-19.5 7.5T387-317v120q0 13 7.5 20.5T414-169z"/><glyph glyph-name="uni013C" unicode="ļ" vert-adv-y="1980" d="M1066 0H814Q670 0 587.5 86T505 319v895H159q-13 0-21.5 8t-8.5 22v126q0 14 8.5 22t21.5 8h538q13 0 21.5-8t8.5-22V350q0-76 43.5-120T890 186h176q14 0 22-8t8-22V30q0-14-8-22t-22-8zM414-169h394q28 0 28-28v-68q0-265-31-420-4-21-32-21H661q-29 0-26 30 13 191 12 331H414q-12 0-19.5 7.5T387-317v120q0 13 7.5 20.5T414-169z"/><glyph glyph-name="Lcaron" unicode="Ľ" vert-adv-y="1980" d="M1056 0H204q-14 0-22 8t-8 22v1280q0 14 8 22t22 8h170q14 0 22-8t8-22V206h652q14 0 22-8t8-22V30q0-14-8-22t-22-8zM566 1340h426q14 0 22-8t8-22v-73q0-288-34-455-4-23-34-23H833q-31 0-29 32 15 208 13 358H566q-14 0-22 8.5t-8 21.5v131q0 14 8 22t22 8z"/><glyph glyph-name="lcaron" unicode="ľ" vert-adv-y="1980" d="M780 1404h366q25 0 25-30v-73q0-289-29-455-4-22-29-22h-104q-27 0-24 32 12 192 11 358H780q-25 0-25 30v130q0 30 25 30zM987 0H735Q591 0 508.5 86T426 319v895H80q-14 0-22 8t-8 22v126q0 14 8 22t22 8h538q14 0 22-8t8-22V350q0-76 43.5-120T811 186h176q13 0 21.5-8t8.5-22V30q0-14-8.5-22T987 0z"/><glyph glyph-name="Ldot" unicode="Ŀ" vert-adv-y="1980" d="M1056 0H204q-14 0-22 8t-8 22v1280q0 14 8 22t22 8h170q14 0 22-8t8-22V206h652q14 0 22-8t8-22V30q0-14-8-22t-22-8zM770 602q-78 0-133 54.5T582 790q0 78 55 132.5T770 977t132.5-54.5T957 790q0-79-54.5-133.5T770 602z"/><glyph glyph-name="ldot" unicode="ŀ" vert-adv-y="1980" d="M1066 0H814Q670 0 587.5 86T505 319v895H159q-13 0-21.5 8t-8.5 22v126q0 14 8.5 22t21.5 8h538q13 0 21.5-8t8.5-22V350q0-76 43.5-120T890 186h176q14 0 22-8t8-22V30q0-14-8-22t-22-8zm-85 647q-61 0-104 42.5T834 794q0 61 43 104t104 43 104-43 43-104q0-62-43-104.5T981 647z"/><glyph glyph-name="Lslash" unicode="Ł" vert-adv-y="1980" d="M439 206h572q13 0 21.5-8t8.5-22V30q0-14-8.5-22T1011 0H239q-13 0-21.5 8T209 30v438L99 360q-15-14-25.5-9T63 376v146q0 22 16 38l130 127v683q0 14 8.5 22t21.5 8h170q13 0 21.5-8t8.5-22V911l169 165q15 14 25.5 9t10.5-25V916q0-22-16-38L439 693V206z"/><glyph glyph-name="lslash" unicode="ł" vert-adv-y="1980" d="M901 186h177q14 0 22-8t8-22V30q0-14-8-22t-22-8H825Q681 0 599 86t-82 233v213L353 380v200l164 152v482H171q-13 0-21.5 8t-8.5 22v126q0 14 8.5 22t21.5 8h538q13 0 21.5-8t8.5-22V938l171 158 1-198-172-160V350q0-76 43.5-120T901 186z"/><glyph glyph-name="Nacute" unicode="Ń" vert-adv-y="1980" d="M690 1545H552q-17 0-24 9t0 25l120 252q11 24 34 24h138q17 0 24-9t0-25l-120-252q-11-24-34-24zm210-205h149q13 0 21.5-8t8.5-22V30q0-14-8.5-22T1049 0H847q-26 0-36 20L360 990V30q0-14-8-22t-22-8H181q-13 0-21.5 8T151 30v1280q0 14 8.5 22t21.5 8h202q27 0 36-20l451-968v958q0 14 8 22t22 8z"/><glyph glyph-name="nacute" unicode="ń" vert-adv-y="1980" d="M690 1195H552q-17 0-24 9t0 25l120 252q11 24 34 24h138q17 0 24-9t0-25l-120-252q-11-24-34-24zm23-185q162 0 263-110.5T1077 596V30q0-14-8.5-22T1047 0H885q-13 0-21.5 8T855 30v525q0 115-63.5 182.5T616 805t-176.5-68T375 555V30q0-14-8.5-22T345 0H183q-13 0-21.5 8T153 30v930q0 14 8.5 22t21.5 8h154q28 0 30-30l8-142h28q39 86 119 139t191 53z"/><glyph glyph-name="uni0145" unicode="Ņ" vert-adv-y="1980" d="M900 1340h149q13 0 21.5-8t8.5-22V30q0-14-8.5-22T1049 0H847q-26 0-36 20L360 990V30q0-14-8-22t-22-8H181q-13 0-21.5 8T151 30v1280q0 14 8.5 22t21.5 8h202q27 0 36-20l451-968v958q0 14 8 22t22 8zM414-169h394q28 0 28-28v-68q0-265-31-420-4-21-32-21H661q-29 0-26 30 13 191 12 331H414q-12 0-19.5 7.5T387-317v120q0 13 7.5 20.5T414-169z"/><glyph glyph-name="uni0146" unicode="ņ" vert-adv-y="1980" d="M713 1010q162 0 263-110.5T1077 596V30q0-14-8.5-22T1047 0H885q-13 0-21.5 8T855 30v525q0 115-63.5 182.5T616 805t-176.5-68T375 555V30q0-14-8.5-22T345 0H183q-13 0-21.5 8T153 30v930q0 14 8.5 22t21.5 8h154q28 0 30-30l8-142h28q39 86 119 139t191 53zM414-169h394q28 0 28-28v-68q0-265-31-420-4-21-32-21H661q-29 0-26 30 13 191 12 331H414q-12 0-19.5 7.5T387-317v120q0 13 7.5 20.5T414-169z"/><glyph glyph-name="Ncaron" unicode="Ň" vert-adv-y="1980" d="M469 1558l-222 261q-12 14-7 25t24 11h164q23 0 36-16l151-171 151 171q13 16 36 16h164q19 0 24-11t-7-25l-222-261q-15-16-36-16H505q-21 0-36 16zm431-218h149q13 0 21.5-8t8.5-22V30q0-14-8.5-22T1049 0H847q-26 0-36 20L360 990V30q0-14-8-22t-22-8H181q-13 0-21.5 8T151 30v1280q0 14 8.5 22t21.5 8h202q27 0 36-20l451-968v958q0 14 8 22t22 8z"/><glyph glyph-name="ncaron" unicode="ň" vert-adv-y="1980" d="M469 1208l-222 261q-12 14-7 25t24 11h164q23 0 36-16l151-171 151 171q13 16 36 16h164q19 0 24-11t-7-25l-222-261q-15-16-36-16H505q-21 0-36 16zm244-198q162 0 263-110.5T1077 596V30q0-14-8.5-22T1047 0H885q-13 0-21.5 8T855 30v525q0 115-63.5 182.5T616 805t-176.5-68T375 555V30q0-14-8.5-22T345 0H183q-13 0-21.5 8T153 30v930q0 14 8.5 22t21.5 8h154q28 0 30-30l8-142h28q39 86 119 139t191 53z"/><glyph glyph-name="Eng" unicode="Ŋ" vert-adv-y="1980" d="M900 1340h149q13 0 21.5-8t8.5-22V0q0-219-129-315.5T558-412v210q155 0 233.5 48T870 0h-23q-26 0-36 20L360 990V30q0-14-8-22t-22-8H181q-13 0-21.5 8T151 30v1280q0 14 8.5 22t21.5 8h202q27 0 36-20l451-968v958q0 14 8 22t22 8z"/><glyph glyph-name="eng" unicode="ŋ" vert-adv-y="1980" d="M713 1010q162 0 263-110.5T1077 596V16q0-201-99.5-306.5T706-396q-18 0-23 17l-50 166q-3 9 1 15.5t13 6.5q94 0 151 61t57 180v505q0 115-63.5 182.5T616 805t-176.5-68T375 555V30q0-14-8.5-22T345 0H183q-13 0-21.5 8T153 30v930q0 14 8.5 22t21.5 8h154q28 0 30-30l8-142h28q39 86 119 139t191 53z"/><glyph glyph-name="Omacron" unicode="Ō" vert-adv-y="1980" d="M877 1679H353q-13 0-21.5 8.5T323 1709v116q0 13 8.5 21.5t21.5 8.5h524q13 0 21.5-8.5t8.5-21.5v-116q0-13-8.5-21.5T877 1679zM615-30q-259 0-380.5 162T113 665q0 250 55.5 404T333 1291.5t282 68.5 282-68.5 164.5-222.5 55.5-404q0-371-121.5-533T615-30zm0 221q53 0 93.5 12t76.5 43 59 83.5 36 137T893 665t-13 198.5-36 137-59 83.5-76.5 43-93.5 12-93.5-12-76.5-43-59-83.5-36-137T337 665t13-198.5 36-137 59-83.5 76.5-43 93.5-12z"/><glyph glyph-name="omacron" unicode="ō" vert-adv-y="1980" d="M877 1329H353q-13 0-21.5 8.5T323 1359v116q0 13 8.5 21.5t21.5 8.5h524q13 0 21.5-8.5t8.5-21.5v-116q0-13-8.5-21.5T877 1329zM615-25q-220 0-363.5 148T108 493t143.5 369.5T615 1010t363.5-147.5T1122 493 978.5 123 615-25zm0 206q128 0 209.5 86.5T906 493t-81.5 225T615 804t-209.5-86T324 493t81.5-225.5T615 181z"/><glyph glyph-name="Ohungarumlaut" unicode="Ő" vert-adv-y="1980" d="M507 1545H369q-17 0-24 9t0 25l120 252q11 24 34 24h138q17 0 24-9t0-25l-120-252q-11-24-34-24zm338 0H707q-17 0-24 9t0 25l120 252q11 24 34 24h138q17 0 24-9t0-25l-120-252q-11-24-34-24zM615-30q-259 0-380.5 162T113 665q0 250 55.5 404T333 1291.5t282 68.5 282-68.5 164.5-222.5 55.5-404q0-371-121.5-533T615-30zm0 221q53 0 93.5 12t76.5 43 59 83.5 36 137T893 665t-13 198.5-36 137-59 83.5-76.5 43-93.5 12-93.5-12-76.5-43-59-83.5-36-137T337 665t13-198.5 36-137 59-83.5 76.5-43 93.5-12z"/><glyph glyph-name="ohungarumlaut" unicode="ő" vert-adv-y="1980" d="M507 1195H369q-17 0-24 9t0 25l120 252q11 24 34 24h138q17 0 24-9t0-25l-120-252q-11-24-34-24zm338 0H707q-17 0-24 9t0 25l120 252q11 24 34 24h138q17 0 24-9t0-25l-120-252q-11-24-34-24zM615-25q-220 0-363.5 148T108 493t143.5 369.5T615 1010t363.5-147.5T1122 493 978.5 123 615-25zm0 206q128 0 209.5 86.5T906 493t-81.5 225T615 804t-209.5-86T324 493t81.5-225.5T615 181z"/><glyph glyph-name="OE" unicode="Œ" vert-adv-y="1980" d="M825 206h282q13 0 21.5-8t8.5-22V30q0-14-8.5-22T1107 0H595Q456 0 365 30T211 136t-90.5 204.5T93 666q0 196 27.5 325.5T211 1199t154.5 109.5T595 1340h510q13 0 21.5-8t8.5-22v-146q0-14-8.5-22t-21.5-8H825V781h236q13 0 21.5-8.5t8.5-21.5V605q0-13-8.5-21.5T1061 575H825V206zm-230 4v920q-64 0-105-9t-77-36.5-55-79-30-134T317 666q0-104 6.5-178T346 363t36-81 54.5-46.5 69.5-21 89-4.5z"/><glyph glyph-name="oe" unicode="œ" vert-adv-y="1980" d="M914 152q54 0 94 19.5t80 59.5l91-109Q1079-26 898-26q-193 0-274 179Q548-26 365-26q-165 0-245.5 138.5T39 494q0 242 80.5 380.5T365 1013q182 0 260-181 81 181 263 181 68 0 121-26t86.5-70.5 55.5-109 31-135 9-154.5q0-61-12.5-86.5T1126 406H707q10-123 57.5-188.5T914 152zm-42 679q-152 0-165-273h318q2 273-153 273zM372 155q168 0 168 338 0 336-168 336-169 0-169-336 0-338 169-338z"/><glyph glyph-name="Racute" unicode="Ŕ" vert-adv-y="1980" d="M690 1545H552q-17 0-24 9t0 25l120 252q11 24 34 24h138q17 0 24-9t0-25l-120-252q-11-24-34-24zM874 487l234-452q8-16 1.5-25.5T1086 0H916q-24 0-35 23L660 452H382V30q0-14-8-22t-22-8H182q-14 0-22 8t-8 22v1280q0 14 8 22t22 8h463q476 0 476-444 0-319-247-409zm-245 647H382V658h247q134 0 202 54t68 184-67.5 184-202.5 54z"/><glyph glyph-name="racute" unicode="ŕ" vert-adv-y="1980" d="M710 1195H572q-17 0-24 9t0 25l120 252q11 24 34 24h138q17 0 24-9t0-25l-120-252q-11-24-34-24zm52-185q158 0 255.5-97t97.5-245q0-64-20.5-91t-60.5-27h-93q-40 0-41 37-2 60-22 103.5t-53 68-71 35.5-84 11q-126 0-199-80.5T398 491V30q0-14-8-22t-22-8H206q-14 0-22 8t-8 22v930q0 14 8 22t22 8h154q27 0 30-30l8-166h31q38 100 125.5 158t207.5 58z"/><glyph glyph-name="uni0156" unicode="Ŗ" vert-adv-y="1980" d="M874 487l234-452q8-16 1.5-25.5T1086 0H916q-24 0-35 23L660 452H382V30q0-14-8-22t-22-8H182q-14 0-22 8t-8 22v1280q0 14 8 22t22 8h463q476 0 476-444 0-319-247-409zm-245 647H382V658h247q134 0 202 54t68 184-67.5 184-202.5 54zM414-169h394q28 0 28-28v-68q0-265-31-420-4-21-32-21H661q-29 0-26 30 13 191 12 331H414q-12 0-19.5 7.5T387-317v120q0 13 7.5 20.5T414-169z"/><glyph glyph-name="uni0157" unicode="ŗ" vert-adv-y="1980" d="M762 1010q158 0 255.5-97t97.5-245q0-64-20.5-91t-60.5-27h-93q-40 0-41 37-2 60-22 103.5t-53 68-71 35.5-84 11q-126 0-199-80.5T398 491V30q0-14-8-22t-22-8H206q-14 0-22 8t-8 22v930q0 14 8 22t22 8h154q27 0 30-30l8-166h31q38 100 125.5 158t207.5 58zM46-169h394q28 0 28-28v-68q0-265-31-420-4-21-32-21H293q-29 0-26 30 13 191 12 331H46q-12 0-19.5 7.5T19-317v120q0 13 7.5 20.5T46-169z"/><glyph glyph-name="Rcaron" unicode="Ř" vert-adv-y="1980" d="M469 1558l-222 261q-12 14-7 25t24 11h164q23 0 36-16l151-171 151 171q13 16 36 16h164q19 0 24-11t-7-25l-222-261q-15-16-36-16H505q-21 0-36 16zM874 487l234-452q8-16 1.5-25.5T1086 0H916q-24 0-35 23L660 452H382V30q0-14-8-22t-22-8H182q-14 0-22 8t-8 22v1280q0 14 8 22t22 8h463q476 0 476-444 0-319-247-409zm-245 647H382V658h247q134 0 202 54t68 184-67.5 184-202.5 54z"/><glyph glyph-name="rcaron" unicode="ř" vert-adv-y="1980" d="M489 1208l-222 261q-12 14-7 25t24 11h164q23 0 36-16l151-171 151 171q13 16 36 16h164q19 0 24-11t-7-25l-222-261q-15-16-36-16H525q-21 0-36 16zm273-198q158 0 255.5-97t97.5-245q0-64-20.5-91t-60.5-27h-93q-40 0-41 37-2 60-22 103.5t-53 68-71 35.5-84 11q-126 0-199-80.5T398 491V30q0-14-8-22t-22-8H206q-14 0-22 8t-8 22v930q0 14 8 22t22 8h154q27 0 30-30l8-166h31q38 100 125.5 158t207.5 58z"/><glyph glyph-name="Sacute" unicode="Ś" vert-adv-y="1980" d="M690 1545H552q-17 0-24 9t0 25l120 252q11 24 34 24h138q17 0 24-9t0-25l-120-252q-11-24-34-24zM608-30q-463 0-493 380-2 15 6.5 25.5T143 386h160q25 0 29-30 14-86 86.5-133.5T618 175q123 0 197 46.5T889 367q0 86-65 133t-231 84q-78 17-138.5 37.5t-121 53.5-100 75-64 103T145 990q0 170 120 270t351 100q429 0 462-363 1-15-6.5-23.5T1050 965H902q-24 0-29 26-12 77-79.5 121T610 1156q-115 0-178.5-44T368 983q0-75 61.5-124.5T648 774q61-14 104-25t96-30 88.5-39.5 72-51 58-67.5 35-87 13.5-110q0-189-130-291.5T608-30z"/><glyph glyph-name="sacute" unicode="ś" vert-adv-y="1980" d="M690 1195H552q-17 0-24 9t0 25l120 252q11 24 34 24h138q17 0 24-9t0-25l-120-252q-11-24-34-24zm-60-618q42-5 67-8.5t67-11 68-15 62-20.5 58.5-28 47.5-36.5 39-47 23.5-59.5 9.5-73q0-143-116-223T615-25q-197 0-320 64.5T158 237q-1 14 7.5 22t22.5 8h153q24 0 31-22 29-98 246-98 237 0 237 130 0 64-58.5 90T599 410q-50 6-85.5 11.5t-83 17T350 464t-68 36.5-56.5 50.5-35 68.5T177 709q0 141 110 221t323 80q186 0 306.5-63.5T1051 753q3-30-29-30H869q-25 0-31 22-10 43-74 68t-160 25q-211 0-211-125 0-64 55-92.5T630 577z"/><glyph glyph-name="Scedilla" unicode="Ş" vert-adv-y="1980" d="M1115 364q0-176-113.5-277.5T670-28l-45-43q71-6 121.5-48.5T797-232q0-82-50.5-132.5t-124-64.5-157.5 0q-18 3-18 22v79q0 10 6 15.5t16 4.5q80-12 125.5 6.5T640-243q0 23-23 40t-60.5 19.5T471-200q-11-4-17.5-.5T447-186v80q0 12 10 24l56 56Q142 12 115 350q-2 15 6.5 25.5T143 386h160q25 0 29-30 14-86 86.5-133.5T618 175q123 0 197 46.5T889 367q0 86-65 133t-231 84q-78 17-138.5 37.5t-121 53.5-100 75-64 103T145 990q0 170 120 270t351 100q429 0 462-363 1-15-6.5-23.5T1050 965H902q-24 0-29 26-12 77-79.5 121T610 1156q-115 0-178.5-44T368 983q0-75 61.5-124.5T648 774q61-14 104-25t96-30 88.5-39.5 72-51 58-67.5 35-87 13.5-110z"/><glyph glyph-name="scedilla" unicode="ş" vert-adv-y="1980" d="M1072 278q0-132-99.5-211T680-23l-51-48q71-6 121.5-48.5T801-232q0-82-50.5-132.5t-124-64.5-157.5 0q-18 3-18 22v79q0 10 6 15.5t16 4.5q80-12 125.5 6.5T644-243q0 23-23 40t-60.5 19.5T475-200q-11-4-17.5-.5T451-186v80q0 12 10 24l61 61Q363-7 266.5 56.5T158 237q-1 14 7.5 22t22.5 8h153q24 0 31-22 29-98 246-98 237 0 237 130 0 64-58.5 90T599 410q-50 6-85.5 11.5t-83 17T350 464t-68 36.5-56.5 50.5-35 68.5T177 709q0 141 110 221t323 80q186 0 306.5-63.5T1051 753q3-30-29-30H869q-25 0-31 22-10 43-74 68t-160 25q-211 0-211-125 0-64 55-92.5T630 577q42-5 67-8.5t67-11 68-15 62-20.5 58.5-28 47.5-36.5 39-47 23.5-59.5 9.5-73z"/><glyph glyph-name="Scaron" unicode="Š" vert-adv-y="1980" d="M724 1542H504q-21 0-36 16l-222 261q-12 14-7 25t24 11h164q23 0 36-16l151-171 151 171q13 16 36 16h164q19 0 24-11t-7-25l-222-261q-15-16-36-16zM608-30q-463 0-493 380-2 15 6.5 25.5T143 386h160q25 0 29-30 14-86 86.5-133.5T618 175q123 0 197 46.5T889 367q0 86-65 133t-231 84q-78 17-138.5 37.5t-121 53.5-100 75-64 103T145 990q0 170 120 270t351 100q429 0 462-363 1-15-6.5-23.5T1050 965H902q-24 0-29 26-12 77-79.5 121T610 1156q-115 0-178.5-44T368 983q0-75 61.5-124.5T648 774q61-14 104-25t96-30 88.5-39.5 72-51 58-67.5 35-87 13.5-110q0-189-130-291.5T608-30z"/><glyph glyph-name="scaron" unicode="š" vert-adv-y="1980" d="M725 1192H505q-21 0-36 16l-222 261q-12 14-7 25t24 11h164q23 0 36-16l151-171 151 171q13 16 36 16h164q19 0 24-11t-7-25l-222-261q-15-16-36-16zm-95-615q42-5 67-8.5t67-11 68-15 62-20.5 58.5-28 47.5-36.5 39-47 23.5-59.5 9.5-73q0-143-116-223T615-25q-197 0-320 64.5T158 237q-1 14 7.5 22t22.5 8h153q24 0 31-22 29-98 246-98 237 0 237 130 0 64-58.5 90T599 410q-50 6-85.5 11.5t-83 17T350 464t-68 36.5-56.5 50.5-35 68.5T177 709q0 141 110 221t323 80q186 0 306.5-63.5T1051 753q3-30-29-30H869q-25 0-31 22-10 43-74 68t-160 25q-211 0-211-125 0-64 55-92.5T630 577z"/><glyph glyph-name="uni0162" unicode="Ţ" vert-adv-y="1980" d="M130 1340h970q14 0 22-8t8-22v-146q0-14-8-22t-22-8H730V30q0-14-8-22t-22-8h4l-75-71q71-6 121.5-48.5T801-232q0-82-50.5-132.5t-124-64.5-157.5 0q-18 3-18 22v79q0 10 6 15.5t16 4.5q80-12 125.5 6.5T644-243q0 23-23 40t-60.5 19.5T475-200q-11-4-17.5-.5T451-186v80q0 12 10 24l82 82h-13q-14 0-22 8t-8 22v1104H130q-14 0-22 8t-8 22v146q0 14 8 22t22 8z"/><glyph glyph-name="uni0163" unicode="ţ" vert-adv-y="1980" d="M1093 237q37-37 41.5-60.5T1120 130q-29-42-104-89.5T834-21l-53-50q71-6 121.5-48.5T953-232q0-82-50.5-132.5t-124-64.5-157.5 0q-18 3-18 22v79q0 10 6 15.5t16 4.5q80-12 125.5 6.5T796-243q0 23-23 40t-60.5 19.5T627-200q-11-4-17.5-.5T603-186v80q0 12 10 24l65 65Q620-7 571.5 17.5t-91.5 68T412.5 201 388 367v429H112q-14 0-22 8t-8 22v124q0 14 8 22t22 8h276v280q0 14 8 22t22 8h162q14 0 22-8t8-22V980h437q13 0 21.5-8t8.5-22V826q0-14-8.5-22t-21.5-8H610V402q0-66 17-112.5t47-70.5 62.5-34 71.5-10q109 0 203 81 17 18 34.5 14.5T1093 237z"/><glyph glyph-name="Tcaron" unicode="Ť" vert-adv-y="1980" d="M725 1542H505q-21 0-36 16l-222 261q-12 14-7 25t24 11h164q23 0 36-16l151-171 151 171q13 16 36 16h164q19 0 24-11t-7-25l-222-261q-15-16-36-16zM700 0H530q-14 0-22 8t-8 22v1104H130q-14 0-22 8t-8 22v146q0 14 8 22t22 8h970q14 0 22-8t8-22v-146q0-14-8-22t-22-8H730V30q0-14-8-22t-22-8z"/><glyph glyph-name="tcaron" unicode="ť" vert-adv-y="1980" d="M1014 1649h138q17 0 24-9t0-25l-120-252q-11-24-34-24H884q-17 0-24 9t0 25l120 252q11 24 34 24zm-3-1393q17 18 34.5 14.5T1093 237q37-37 41.5-60.5T1120 130q-14-20-41-43.5t-70-50-107-44T767-25q-54 0-103.5 10t-101 37-89 69.5T412 205t-24 162v429H112q-14 0-22 8t-8 22v124q0 14 8 22t22 8h276v280q0 14 8 22t22 8h162q14 0 22-8t8-22V980h437q13 0 21.5-8t8.5-22V826q0-14-8.5-22t-21.5-8H610V402q0-66 17-112.5t47-70.5 62.5-34 71.5-10q109 0 203 81z"/><glyph glyph-name="Tbar" unicode="Ŧ" vert-adv-y="1980" d="M130 1340h970q14 0 22-8t8-22v-146q0-14-8-22t-22-8H730V918h210q14 0 22-8t8-22V772q0-14-8-22t-22-8H730V30q0-14-8-22t-22-8H530q-14 0-22 8t-8 22v712H290q-14 0-22 8t-8 22v116q0 14 8 22t22 8h210v216H130q-14 0-22 8t-8 22v146q0 14 8 22t22 8z"/><glyph glyph-name="tbar" unicode="ŧ" vert-adv-y="1980" d="M1093 237q37-37 41.5-60.5T1120 130q-14-20-41-43.5t-70-50-107-44T767-25q-54 0-103.5 10t-101 37-89 69.5T412 205t-24 162v156H112q-14 0-22 8.5T82 553v108q0 13 8 21.5t22 8.5h276v105H112q-14 0-22 8t-8 22v124q0 14 8 22t22 8h276v280q0 14 8 22t22 8h162q14 0 22-8t8-22V980h437q13 0 21.5-8t8.5-22V826q0-14-8.5-22t-21.5-8H610V691h436q14 0 22-8.5t8-21.5V553q0-13-8-21.5t-22-8.5H610V402q0-66 17-112.5t47-70.5 62.5-34 71.5-10q109 0 203 81 17 18 34.5 14.5T1093 237z"/><glyph glyph-name="Umacron" unicode="Ū" vert-adv-y="1980" d="M877 1679H353q-13 0-21.5 8.5T323 1709v116q0 13 8.5 21.5t21.5 8.5h524q13 0 21.5-8.5t8.5-21.5v-116q0-13-8.5-21.5T877 1679zM615-30Q383-30 258 90.5T133 447v863q0 14 8.5 22t21.5 8h170q13 0 21.5-8t8.5-22V466q0-131 64-203t188-72 188 72 64 203v844q0 14 8.5 22t21.5 8h170q13 0 21.5-8t8.5-22V447q0-236-125-356.5T615-30z"/><glyph glyph-name="umacron" unicode="ū" vert-adv-y="1980" d="M877 1329H353q-13 0-21.5 8.5T323 1359v116q0 13 8.5 21.5t21.5 8.5h524q13 0 21.5-8.5t8.5-21.5v-116q0-13-8.5-21.5T877 1329zm8-339h162q13 0 21.5-8t8.5-22V30q0-14-8.5-22T1047 0H893q-28 0-30 30l-8 142h-28Q788 86 708 33T517-20Q355-20 254 90.5T153 394v566q0 14 8.5 22t21.5 8h162q13 0 21.5-8t8.5-22V435q0-115 63.5-182.5T614 185t176.5 68T855 435v525q0 14 8.5 22t21.5 8z"/><glyph glyph-name="Ubreve" unicode="Ŭ" vert-adv-y="1980" d="M615 1551q-135 0-217.5 77T303 1823q-3 32 29 32h89q25 0 32-30 12-53 54.5-89t107.5-36 107.5 36 54.5 89q7 30 32 30h89q32 0 29-32-12-118-94.5-195T615 1551zm0-1581Q383-30 258 90.5T133 447v863q0 14 8.5 22t21.5 8h170q13 0 21.5-8t8.5-22V466q0-131 64-203t188-72 188 72 64 203v844q0 14 8.5 22t21.5 8h170q13 0 21.5-8t8.5-22V447q0-236-125-356.5T615-30z"/><glyph glyph-name="ubreve" unicode="ŭ" vert-adv-y="1980" d="M615 1201q-135 0-217.5 77T303 1473q-3 32 29 32h89q25 0 32-30 12-53 54.5-89t107.5-36 107.5 36 54.5 89q7 30 32 30h89q32 0 29-32-12-118-94.5-195T615 1201zm270-211h162q13 0 21.5-8t8.5-22V30q0-14-8.5-22T1047 0H893q-28 0-30 30l-8 142h-28Q788 86 708 33T517-20Q355-20 254 90.5T153 394v566q0 14 8.5 22t21.5 8h162q13 0 21.5-8t8.5-22V435q0-115 63.5-182.5T614 185t176.5 68T855 435v525q0 14 8.5 22t21.5 8z"/><glyph glyph-name="Uring" unicode="Ů" vert-adv-y="1980" d="M615 1474q-81 0-137 56t-56 134 56 134.5 137 56.5 136.5-56.5T807 1664t-55.5-134-136.5-56zm0 125q28 0 48.5 19t19.5 47-20.5 47-47.5 19q-29 0-48-19t-19-47 19-47 48-19zm0-1629Q383-30 258 90.5T133 447v863q0 14 8.5 22t21.5 8h170q13 0 21.5-8t8.5-22V466q0-131 64-203t188-72 188 72 64 203v844q0 14 8.5 22t21.5 8h170q13 0 21.5-8t8.5-22V447q0-236-125-356.5T615-30z"/><glyph glyph-name="uring" unicode="ů" vert-adv-y="1980" d="M615 1124q-81 0-137 56t-56 134 56 134.5 137 56.5 136.5-56.5T807 1314t-55.5-134-136.5-56zm0 257q-29 0-48-19t-19-47 19-47 48-19q28 0 48.5 19t19.5 47-20.5 47-47.5 19zm270-391h162q13 0 21.5-8t8.5-22V30q0-14-8.5-22T1047 0H893q-28 0-30 30l-8 142h-28Q788 86 708 33T517-20Q355-20 254 90.5T153 394v566q0 14 8.5 22t21.5 8h162q13 0 21.5-8t8.5-22V435q0-115 63.5-182.5T614 185t176.5 68T855 435v525q0 14 8.5 22t21.5 8z"/><glyph glyph-name="Uhungarumlaut" unicode="Ű" vert-adv-y="1980" d="M507 1545H369q-17 0-24 9t0 25l120 252q11 24 34 24h138q17 0 24-9t0-25l-120-252q-11-24-34-24zm338 0H707q-17 0-24 9t0 25l120 252q11 24 34 24h138q17 0 24-9t0-25l-120-252q-11-24-34-24zM615-30Q383-30 258 90.5T133 447v863q0 14 8.5 22t21.5 8h170q13 0 21.5-8t8.5-22V466q0-131 64-203t188-72 188 72 64 203v844q0 14 8.5 22t21.5 8h170q13 0 21.5-8t8.5-22V447q0-236-125-356.5T615-30z"/><glyph glyph-name="uhungarumlaut" unicode="ű" vert-adv-y="1980" d="M507 1195H369q-17 0-24 9t0 25l120 252q11 24 34 24h138q17 0 24-9t0-25l-120-252q-11-24-34-24zm338 0H707q-17 0-24 9t0 25l120 252q11 24 34 24h138q17 0 24-9t0-25l-120-252q-11-24-34-24zm40-205h162q13 0 21.5-8t8.5-22V30q0-14-8.5-22T1047 0H893q-28 0-30 30l-8 142h-28Q788 86 708 33T517-20Q355-20 254 90.5T153 394v566q0 14 8.5 22t21.5 8h162q13 0 21.5-8t8.5-22V435q0-115 63.5-182.5T614 185t176.5 68T855 435v525q0 14 8.5 22t21.5 8z"/><glyph glyph-name="Uogonek" unicode="Ų" vert-adv-y="1980" d="M897 1340h170q13 0 21.5-8t8.5-22V447q0-185-77-299T796-7v-1q-89-22-127.5-50.5T630-139q0-107 146-107h39q20 0 20-20v-101q0-20-20-20h-58q-51 0-98 9.5T566-346t-73.5 66T465-175q0 99 77 148Q344-9 238.5 110.5T133 447v863q0 14 8.5 22t21.5 8h170q13 0 21.5-8t8.5-22V466q0-131 64-203t188-72 188 72 64 203v844q0 14 8.5 22t21.5 8z"/><glyph glyph-name="uogonek" unicode="ų" vert-adv-y="1980" d="M885 990h162q13 0 21.5-8t8.5-22V30q0-14-8.5-22T1047 0Q859 0 859-119q0-53 39.5-82.5T1011-231h33q20 0 20-20v-101q0-20-20-20h-58q-51 0-98 10t-93 33-73.5 69T694-149q0 159 167 213l-6 108h-28Q788 86 708 33T517-20Q355-20 254 90.5T153 394v566q0 14 8.5 22t21.5 8h162q13 0 21.5-8t8.5-22V435q0-115 63.5-182.5T614 185t176.5 68T855 435v525q0 14 8.5 22t21.5 8z"/><glyph glyph-name="Wcircumflex" unicode="Ŵ" vert-adv-y="1980" d="M428 1542H264q-19 0-24 11t7 25l222 261q15 16 36 16h220q21 0 36-16l222-261q12-14 7-25t-24-11H802q-23 0-36 16l-151 170-151-170q-13-16-36-16zm554-202h155q27 0 24-34L1000 24q-1-11-12.5-17.5T963 0H764q-30 0-35 24L615 752 501 24q-5-24-35-24H267q-13 0-24.5 6.5T230 24L69 1306q-3 34 24 34h155q31 0 34-24L388 297l149 899q4 24 34 24h88q30 0 34-24l149-899 106 1019q3 24 34 24z"/><glyph glyph-name="wcircumflex" unicode="ŵ" vert-adv-y="1980" d="M427 1192H263q-19 0-24 11t7 25l222 261q15 16 36 16h220q21 0 36-16l222-261q12-14 7-25t-24-11H801q-23 0-36 16l-151 170-151-170q-13-16-36-16zm572-202h138q30 0 24-34L980 24q-5-24-36-24H780q-30 0-36 24L615 667 486 24q-6-24-36-24H286q-32 0-36 24L69 956q-6 34 24 34h138q31 0 36-24l113-711 147 701q5 24 36 24h104q31 0 36-24l147-701 113 711q5 24 36 24z"/><glyph glyph-name="Ycircumflex" unicode="Ŷ" vert-adv-y="1980" d="M428 1542H264q-19 0-24 11t7 25l222 261q15 16 36 16h220q21 0 36-16l222-261q12-14 7-25t-24-11H802q-23 0-36 16l-151 170-151-170q-13-16-36-16zm528-202h180q18 0 23.5-10t-3.5-26L730 518V30q0-14-8-22t-22-8H530q-14 0-22 8t-8 22v490L74 1304q-9 16-3.5 26t23.5 10h180q26 0 36-20l305-582 305 582q10 20 36 20z"/><glyph glyph-name="ycircumflex" unicode="ŷ" vert-adv-y="1980" d="M428 1192H264q-19 0-24 11t7 25l222 261q15 16 36 16h220q21 0 36-16l222-261q12-14 7-25t-24-11H802q-23 0-36 16l-151 170-151-170q-13-16-36-16zm507-202h162q17 0 24-9t0-25L584-356q-9-24-36-24H386q-17 0-24 9t0 25L504-2 109 956q-7 16 0 25t24 9h162q27 0 36-24l284-716 284 716q9 24 36 24z"/><glyph glyph-name="Ydieresis" unicode="Ÿ" vert-adv-y="1980" d="M411 1621q-48 0-82 34.5t-34 83.5q0 48 34.5 82t81.5 34q48 0 82.5-34t34.5-82q0-49-34.5-83.5T411 1621zm408 0q-48 0-82 34.5t-34 83.5q0 48 34.5 82t81.5 34q48 0 82.5-34t34.5-82q0-49-34.5-83.5T819 1621zm137-281h180q18 0 23.5-10t-3.5-26L730 518V30q0-14-8-22t-22-8H530q-14 0-22 8t-8 22v490L74 1304q-9 16-3.5 26t23.5 10h180q26 0 36-20l305-582 305 582q10 20 36 20z"/><glyph glyph-name="Zacute" unicode="Ź" vert-adv-y="1980" d="M690 1545H552q-17 0-24 9t0 25l120 252q11 24 34 24h138q17 0 24-9t0-25l-120-252q-11-24-34-24zM1071 0H159q-13 0-21.5 8T129 30v156q0 20 12 36l687 912H179q-13 0-21.5 8t-8.5 22v146q0 14 8.5 22t21.5 8h872q13 0 21.5-8t8.5-22v-156q0-20-12-36L382 206h689q13 0 21.5-8t8.5-22V30q0-14-8.5-22T1071 0z"/><glyph glyph-name="zacute" unicode="ź" vert-adv-y="1980" d="M690 1195H552q-17 0-24 9t0 25l120 252q11 24 34 24h138q17 0 24-9t0-25l-120-252q-11-24-34-24zm352-235V829q0-24-14-38L447 183h570q13 0 21.5-8.5t8.5-21.5V30q0-14-8.5-22T1017 0H213q-13 0-21.5 8T183 30v131q0 24 14 38l581 608H208q-14 0-22 8.5t-8 21.5v123q0 14 8 22t22 8h804q14 0 22-8t8-22z"/><glyph glyph-name="Zdotaccent" unicode="Ż" vert-adv-y="1980" d="M615 1621q-48 0-82.5 34.5T498 1739q0 48 34.5 82t82.5 34 82.5-34 34.5-82q0-49-34.5-83.5T615 1621zM1071 0H159q-13 0-21.5 8T129 30v156q0 20 12 36l687 912H179q-13 0-21.5 8t-8.5 22v146q0 14 8.5 22t21.5 8h872q13 0 21.5-8t8.5-22v-156q0-20-12-36L382 206h689q13 0 21.5-8t8.5-22V30q0-14-8.5-22T1071 0z"/><glyph glyph-name="zdotaccent" unicode="ż" vert-adv-y="1980" d="M615 1271q-48 0-82.5 34.5T498 1389q0 48 34.5 82t82.5 34 82.5-34 34.5-82q0-49-34.5-83.5T615 1271zm427-311V829q0-24-14-38L447 183h570q13 0 21.5-8.5t8.5-21.5V30q0-14-8.5-22T1017 0H213q-13 0-21.5 8T183 30v131q0 24 14 38l581 608H208q-14 0-22 8.5t-8 21.5v123q0 14 8 22t22 8h804q14 0 22-8t8-22z"/><glyph glyph-name="Zcaron" unicode="Ž" vert-adv-y="1980" d="M725 1542H505q-21 0-36 16l-222 261q-12 14-7 25t24 11h164q23 0 36-16l151-171 151 171q13 16 36 16h164q19 0 24-11t-7-25l-222-261q-15-16-36-16zM1071 0H159q-13 0-21.5 8T129 30v156q0 20 12 36l687 912H179q-13 0-21.5 8t-8.5 22v146q0 14 8.5 22t21.5 8h872q13 0 21.5-8t8.5-22v-156q0-20-12-36L382 206h689q13 0 21.5-8t8.5-22V30q0-14-8.5-22T1071 0z"/><glyph glyph-name="zcaron" unicode="ž" vert-adv-y="1980" d="M725 1192H505q-21 0-36 16l-222 261q-12 14-7 25t24 11h164q23 0 36-16l151-171 151 171q13 16 36 16h164q19 0 24-11t-7-25l-222-261q-15-16-36-16zm317-232V829q0-24-14-38L447 183h570q13 0 21.5-8.5t8.5-21.5V30q0-14-8.5-22T1017 0H213q-13 0-21.5 8T183 30v131q0 24 14 38l581 608H208q-14 0-22 8.5t-8 21.5v123q0 14 8 22t22 8h804q14 0 22-8t8-22z"/><glyph glyph-name="longs" unicode="ſ" vert-adv-y="1980" d="M1095 1441q20-7 20-29v-121q0-31-34-27-112 16-178 16-65 0-112.5-9.5t-87.5-34-61-70.5-21-114V30q0-14-8.5-22T591 0H429q-13 0-21.5 8T399 30v767H145q-13 0-21.5 8.5T115 827v123q0 14 8.5 22t21.5 8h254v99q0 90 25.5 159.5t68 113 102.5 71 122.5 38.5 135.5 11q153 0 242-31z"/><glyph glyph-name="uni018F" unicode="Ə" vert-adv-y="1980" d="M616 1360q110 0 189.5-20t141.5-67.5 99-128 56-198 19-281.5-19-281.5-56-198-100-128T803-10 611-30Q346-29 227.5 99T109 508v157q0 13 8.5 21.5T139 695h758q-1 114-14.5 194T847 1017.5t-59 75.5-77.5 36-100.5 9q-129 0-188.5-38T343 951q-4-26-35-26H152q-30 0-27 33 18 218 136 310t355 92zm-5-1169q51 0 87.5 6.5t71 25.5 57 53 39 89T890 497H326q1-173 66-239.5T611 191z"/><glyph glyph-name="florin" unicode="ƒ" vert-adv-y="1980" d="M889 1472q94 0 181-17.5t87-47.5v-117q0-15-10-23t-26-5q-4 1-23.5 5t-37.5 7.5-51.5 6.5-69.5 3q-103 0-157.5-49.5T727 1055v-75h363q14 0 22-8t8-22V827q0-13-8-21.5t-22-8.5H727V384q0-113-29.5-192t-84-122T493 8.5 342-10q-94 0-181 17.5T74 55v117q0 15 10 23t26 5q4-1 23.5-5t37.5-7.5 51.5-6.5 69.5-3q104 0 158.5 49.5T505 407v390H125q-13 0-21.5 8.5T95 827v123q0 14 8.5 22t21.5 8h380v98q0 113 29.5 192t84 122 120 61.5T889 1472z"/><glyph glyph-name="uni01CD" unicode="Ǎ" vert-adv-y="1980" d="M469 1558l-222 261q-12 14-7 25t24 11h164q23 0 36-16l151-171 151 171q13 16 36 16h164q19 0 24-11t-7-25l-222-261q-15-16-36-16H505q-21 0-36 16zm324-242L1159 34q9-34-24-34H964q-29 0-34 24l-69 252H369L300 24q-5-24-34-24H95Q62 0 71 34l366 1282q7 24 35 24h286q28 0 35-24zm-198-214L423 475h384l-172 627h-40z"/><glyph glyph-name="uni01CE" unicode="ǎ" vert-adv-y="1980" d="M477 1208l-222 261q-12 14-7 25t24 11h164q23 0 36-16l151-171 151 171q13 16 36 16h164q19 0 24-11t-7-25l-222-261q-15-16-36-16H513q-21 0-36 16zm606-1056q22-14 30.5-26.5T1122 89V60q0-75-104-75-72 0-119 44.5T852 156v29h-11Q809 94 719 34.5T491-25h-49q-151 0-235.5 77.5T122 268q0 127 76 201.5T429 554l399 26v60q0 107-48.5 148T605 829q-106 0-159.5-27.5T384 708q-3-22-28-22H202q-30 0-29 30 10 294 437 294 123 0 208-24t134.5-73 71-116 21.5-161V269q0-56 8.5-79.5T1083 152zm-567-4h31q73 0 134 21t104 71.5T828 365v71l-342-25q-147-11-147-129 0-134 177-134z"/><glyph glyph-name="uni01CF" unicode="Ǐ" vert-adv-y="1980" d="M725 1542H505q-21 0-36 16l-222 261q-12 14-7 25t24 11h164q23 0 36-16l151-171 151 171q13 16 36 16h164q19 0 24-11t-7-25l-222-261q-15-16-36-16zM1068 0H162q-14 0-22 8t-8 22v146q0 14 8 22t22 8h338v928H162q-14 0-22 8t-8 22v146q0 14 8 22t22 8h906q14 0 22-8t8-22v-146q0-14-8-22t-22-8H730V206h338q14 0 22-8t8-22V30q0-14-8-22t-22-8z"/><glyph glyph-name="uni01D0" unicode="ǐ" vert-adv-y="1980" d="M459 1208l-222 261q-12 14-7 25t24 11h164q23 0 36-16l151-171 151 171q13 16 36 16h164q19 0 24-11t-7-25l-222-261q-15-16-36-16H495q-21 0-36 16zM883 186h161q14 0 22-8t8-22V30q0-14-8-22t-22-8H801Q661 0 586.5 78.5T512 299v505H191q-13 0-21.5 8t-8.5 22v126q0 14 8.5 22t21.5 8h513q14 0 22-8t8-22V336q0-150 149-150z"/><glyph glyph-name="uni01D1" unicode="Ǒ" vert-adv-y="1980" d="M725 1542H505q-21 0-36 16l-222 261q-12 14-7 25t24 11h164q23 0 36-16l151-171 151 171q13 16 36 16h164q19 0 24-11t-7-25l-222-261q-15-16-36-16zM615-30q-259 0-380.5 162T113 665q0 250 55.5 404T333 1291.5t282 68.5 282-68.5 164.5-222.5 55.5-404q0-371-121.5-533T615-30zm0 221q53 0 93.5 12t76.5 43 59 83.5 36 137T893 665t-13 198.5-36 137-59 83.5-76.5 43-93.5 12-93.5-12-76.5-43-59-83.5-36-137T337 665t13-198.5 36-137 59-83.5 76.5-43 93.5-12z"/><glyph glyph-name="uni01D2" unicode="ǒ" vert-adv-y="1980" d="M725 1192H505q-21 0-36 16l-222 261q-12 14-7 25t24 11h164q23 0 36-16l151-171 151 171q13 16 36 16h164q19 0 24-11t-7-25l-222-261q-15-16-36-16zM615-25q-220 0-363.5 148T108 493t143.5 369.5T615 1010t363.5-147.5T1122 493 978.5 123 615-25zm0 206q128 0 209.5 86.5T906 493t-81.5 225T615 804t-209.5-86T324 493t81.5-225.5T615 181z"/><glyph glyph-name="uni01D3" unicode="Ǔ" vert-adv-y="1980" d="M725 1542H505q-21 0-36 16l-222 261q-12 14-7 25t24 11h164q23 0 36-16l151-171 151 171q13 16 36 16h164q19 0 24-11t-7-25l-222-261q-15-16-36-16zM615-30Q383-30 258 90.5T133 447v863q0 14 8.5 22t21.5 8h170q13 0 21.5-8t8.5-22V466q0-131 64-203t188-72 188 72 64 203v844q0 14 8.5 22t21.5 8h170q13 0 21.5-8t8.5-22V447q0-236-125-356.5T615-30z"/><glyph glyph-name="uni01D4" unicode="ǔ" vert-adv-y="1980" d="M469 1208l-222 261q-12 14-7 25t24 11h164q23 0 36-16l151-171 151 171q13 16 36 16h164q19 0 24-11t-7-25l-222-261q-15-16-36-16H505q-21 0-36 16zm416-218h162q13 0 21.5-8t8.5-22V30q0-14-8.5-22T1047 0H893q-28 0-30 30l-8 142h-28Q788 86 708 33T517-20Q355-20 254 90.5T153 394v566q0 14 8.5 22t21.5 8h162q13 0 21.5-8t8.5-22V435q0-115 63.5-182.5T614 185t176.5 68T855 435v525q0 14 8.5 22t21.5 8z"/><glyph glyph-name="uni01EA" unicode="Ǫ" vert-adv-y="1980" d="M812-1v-7q-97-24-137-51.5T635-139q0-107 146-107h39q20 0 20-20v-101q0-20-20-20h-58q-51 0-98 9.5T571-346t-73.5 66T470-175q0 99 77 148Q324-8 218.5 155.5T113 665q0 250 55.5 404T333 1291.5t282 68.5 282-68.5 164.5-222.5 55.5-404q0-292-75-452.5T812-1zM337 665q0-114 13-198.5t36-137 59-83.5 76.5-43 93.5-12 93.5 12 76.5 43 59 83.5 36 137T893 665t-13 198.5-36 137-59 83.5-76.5 43-93.5 12-93.5-12-76.5-43-59-83.5-36-137T337 665z"/><glyph glyph-name="uni01EB" unicode="ǫ" vert-adv-y="1980" d="M753-8q-88-21-126.5-49.5T588-139q0-107 146-107h39q20 0 20-20v-101q0-20-20-20h-58q-51 0-98 9.5T524-346t-73.5 66T423-175q0 112 95 158-183 33-296.5 174T108 493q0 222 143.5 369.5T615 1010t363.5-147.5T1122 493q0-184-101.5-320.5T753-8zM324 493q0-139 81.5-225.5T615 181t209.5 86.5T906 493t-81.5 225T615 804t-209.5-86T324 493z"/><glyph glyph-name="uni0218" unicode="Ș" vert-adv-y="1980" d="M608-30q-463 0-493 380-2 15 6.5 25.5T143 386h160q25 0 29-30 14-86 86.5-133.5T618 175q123 0 197 46.5T889 367q0 86-65 133t-231 84q-78 17-138.5 37.5t-121 53.5-100 75-64 103T145 990q0 170 120 270t351 100q429 0 462-363 1-15-6.5-23.5T1050 965H902q-24 0-29 26-12 77-79.5 121T610 1156q-115 0-178.5-44T368 983q0-75 61.5-124.5T648 774q61-14 104-25t96-30 88.5-39.5 72-51 58-67.5 35-87 13.5-110q0-189-130-291.5T608-30zM410-169h394q28 0 28-28v-68q0-265-31-420-4-21-32-21H657q-29 0-26 30 13 191 12 331H410q-12 0-19.5 7.5T383-317v120q0 13 7.5 20.5T410-169z"/><glyph glyph-name="uni0219" unicode="ș" vert-adv-y="1980" d="M630 577q42-5 67-8.5t67-11 68-15 62-20.5 58.5-28 47.5-36.5 39-47 23.5-59.5 9.5-73q0-143-116-223T615-25q-197 0-320 64.5T158 237q-1 14 7.5 22t22.5 8h153q24 0 31-22 29-98 246-98 237 0 237 130 0 64-58.5 90T599 410q-50 6-85.5 11.5t-83 17T350 464t-68 36.5-56.5 50.5-35 68.5T177 709q0 141 110 221t323 80q186 0 306.5-63.5T1051 753q3-30-29-30H869q-25 0-31 22-10 43-74 68t-160 25q-211 0-211-125 0-64 55-92.5T630 577zM414-169h394q28 0 28-28v-68q0-265-31-420-4-21-32-21H661q-29 0-26 30 13 191 12 331H414q-12 0-19.5 7.5T387-317v120q0 13 7.5 20.5T414-169z"/><glyph glyph-name="uni021A" unicode="Ț" vert-adv-y="1980" d="M700 0H530q-14 0-22 8t-8 22v1104H130q-14 0-22 8t-8 22v146q0 14 8 22t22 8h970q14 0 22-8t8-22v-146q0-14-8-22t-22-8H730V30q0-14-8-22t-22-8zM414-169h394q28 0 28-28v-68q0-265-31-420-4-21-32-21H661q-29 0-26 30 13 191 12 331H414q-12 0-19.5 7.5T387-317v120q0 13 7.5 20.5T414-169z"/><glyph glyph-name="uni021B" unicode="ț" vert-adv-y="1980" d="M1093 237q37-37 41.5-60.5T1120 130q-14-20-41-43.5t-70-50-107-44T767-25q-54 0-103.5 10t-101 37-89 69.5T412 205t-24 162v429H112q-14 0-22 8t-8 22v124q0 14 8 22t22 8h276v280q0 14 8 22t22 8h162q14 0 22-8t8-22V980h437q13 0 21.5-8t8.5-22V826q0-14-8.5-22t-21.5-8H610V402q0-66 17-112.5t47-70.5 62.5-34 71.5-10q109 0 203 81 17 18 34.5 14.5T1093 237zM566-169h394q28 0 28-28v-68q0-265-31-420-4-21-32-21H813q-29 0-26 30 13 191 12 331H566q-12 0-19.5 7.5T539-317v120q0 13 7.5 20.5T566-169z"/><glyph glyph-name="uni0237" unicode="ȷ" vert-adv-y="1980" d="M493-385q-64 0-124 13t-102.5 33-72.5 42.5-41 44-3 35.5l64 104q16 25 46 6 106-72 216-72 45 0 83.5 11t74 37.5 56 77.5T710 70v734H261q-13 0-21.5 8t-8.5 22v126q0 14 8.5 22t21.5 8h641q14 0 22-8t8-22V47q0-98-28-175.5T832.5-253t-103-78T612-373.5 493-385z"/><glyph glyph-name="uni0259" unicode="ə" vert-adv-y="1980" d="M578 1015q238 0 382.5-143.5T1105 495q0-230-139.5-372.5T600-20q-221 0-348 134.5T125 461q0 51 16.5 72.5T210 555h682q-7 132-97 206t-240 74q-139 0-246-63-22-13-38-8t-40 35q-27 33-29.5 52.5T223 894q57 56 150.5 88.5T578 1015zm22-845q116 1 190.5 60.5T885 401H322q12-112 85.5-172.5T600 170z"/><glyph glyph-name="circumflex" unicode="ˆ" vert-adv-y="1980" d="M428 1182H264q-19 0-24 11t7 25l222 261q15 16 36 16h220q21 0 36-16l222-261q12-14 7-25t-24-11H802q-23 0-36 16l-151 170-151-170q-13-16-36-16z"/><glyph glyph-name="caron" unicode="ˇ" vert-adv-y="1980" d="M725 1182H505q-21 0-36 16l-222 261q-12 14-7 25t24 11h164q23 0 36-16l151-171 151 171q13 16 36 16h164q19 0 24-11t-7-25l-222-261q-15-16-36-16z"/><glyph glyph-name="breve" unicode="˘" vert-adv-y="1980" d="M615 1191q-135 0-217.5 77T303 1463q-3 32 29 32h89q25 0 32-30 12-53 54.5-89t107.5-36 107.5 36 54.5 89q7 30 32 30h89q32 0 29-32-12-118-94.5-195T615 1191z"/><glyph glyph-name="dotaccent" unicode="˙" vert-adv-y="1980" d="M615 1261q-48 0-82.5 34.5T498 1379q0 48 34.5 82t82.5 34 82.5-34 34.5-82q0-49-34.5-83.5T615 1261z"/><glyph glyph-name="ring" unicode="˚" vert-adv-y="1980" d="M616 1114q-81 0-137 56t-56 134 56 134.5 137 56.5 136.5-56.5T808 1304t-55.5-134-136.5-56zm0 125q28 0 48.5 19t19.5 47-20.5 47-47.5 19q-29 0-48-19t-19-47 19-47 48-19z"/><glyph glyph-name="ogonek" unicode="˛" vert-adv-y="1980" d="M806-372h-58q-51 0-98 10t-93 33-73.5 69T456-149q0 56 22 99.5T535 20t83 42 94 22 97 6V0Q621 0 621-119q0-53 39.5-82.5T773-231h33q20 0 20-20v-101q0-20-20-20z"/><glyph glyph-name="tilde" unicode="˜" vert-adv-y="1980" d="M778 1219q-55 0-102 22.5t-75 50-64.5 50T464 1364q-68 0-92-60-6-17-22-17h-85q-20 0-20 25 1 91 61.5 139.5T451 1500q56 0 103-23t74.5-50 64-50 72.5-23 59 18 33 43q6 17 22 17h86q20 0 20-21-2-94-62.5-143T778 1219z"/><glyph glyph-name="hungarumlaut" unicode="˝" vert-adv-y="1980" d="M449 1185H311q-17 0-24 9t0 25l120 252q11 24 34 24h138q17 0 24-9t0-25l-120-252q-11-24-34-24zm338 0H649q-17 0-24 9t0 25l120 252q11 24 34 24h138q17 0 24-9t0-25l-120-252q-11-24-34-24z"/><glyph glyph-name="uni0326" unicode="̦" horiz-adv-x="0" vert-adv-y="1980" d="M-816-169h394q28 0 28-28v-68q0-265-31-420-4-21-32-21h-112q-29 0-26 30 13 191 12 331h-233q-12 0-19.5 7.5T-843-317v120q0 13 7.5 20.5t19.5 7.5z"/><glyph glyph-name="uni0374" unicode="ʹ" vert-adv-y="1980" d="M619 1185H481q-17 0-24 9t0 25l120 252q11 24 34 24h138q17 0 24-9t0-25l-120-252q-11-24-34-24z"/><glyph glyph-name="uni0375" unicode="͵" vert-adv-y="1980" d="M619 95H481q-17 0-24 9t0 25l120 252q11 24 34 24h138q17 0 24-9t0-25L653 119q-11-24-34-24z"/><glyph glyph-name="uni037E" unicode=";" vert-adv-y="1980" d="M615 638q-78 0-133 54.5T427 825q0 79 55 133.5t133 54.5 133-54.5T803 825q0-78-55-132.5T615 638zM403 191h426q13 0 21.5-8.5T859 161V87q0-279-34-454-4-23-34-23H670q-31 0-29 32 15 206 13 358H403q-13 0-21.5 8T373 30v131q0 13 8.5 21.5T403 191z"/><glyph glyph-name="tonos" unicode="΄" vert-adv-y="1980" d="M619 1185H481q-17 0-24 9t0 25l120 252q11 24 34 24h138q17 0 24-9t0-25l-120-252q-11-24-34-24z"/><glyph glyph-name="dieresistonos" unicode="΅" vert-adv-y="1980" d="M637 1090H499q-17 0-24 9t0 25l120 252q11 24 34 24h138q17 0 24-9t0-25l-120-252q-11-24-34-24zm-328 0q-48 0-82.5 34.5T192 1208q0 48 34.5 82t82.5 34 82.5-34 34.5-82q0-49-34.5-83.5T309 1090zm612 0q-48 0-82.5 34.5T804 1208q0 48 34.5 82t82.5 34 82.5-34 34.5-82q0-49-34.5-83.5T921 1090z"/><glyph glyph-name="Alphatonos" unicode="Ά" vert-adv-y="1980" d="M306 1306l-120-252q-11-24-34-24H14q-17 0-24 9t0 25l120 252q11 24 34 24h138q17 0 24-9t0-25zm487 10L1159 34q9-34-24-34H964q-29 0-34 24l-69 252H369L300 24q-5-24-34-24H95Q62 0 71 34l366 1282q7 24 35 24h286q28 0 35-24zm-198-214L423 475h384l-172 627h-40z"/><glyph glyph-name="anoteleia" unicode="·" vert-adv-y="1980" d="M615 436q-78 0-133 54.5T427 624q0 78 55 132.5T615 811t133-54.5T803 624q0-79-55-133.5T615 436z"/><glyph glyph-name="Epsilontonos" unicode="Έ" vert-adv-y="1980" d="M-80 1030h-138q-17 0-24 9t0 25l120 252q11 24 34 24H50q17 0 24-9t0-25l-120-252q-11-24-34-24zM1041 0H189q-13 0-21.5 8T159 30v1280q0 14 8.5 22t21.5 8h850q13 0 21.5-8t8.5-22v-146q0-14-8.5-22t-21.5-8H389V781h605q14 0 22-8.5t8-21.5V605q0-13-8-21.5t-22-8.5H389V206h652q13 0 21.5-8t8.5-22V30q0-14-8.5-22T1041 0z"/><glyph glyph-name="Etatonos" unicode="Ή" vert-adv-y="1980" d="M-104 1340H34q17 0 24-9t0-25l-120-252q-11-24-34-24h-138q-17 0-24 9t0 25l120 252q11 24 34 24zm991 0h170q13 0 21.5-8t8.5-22V30q0-14-8.5-22T1057 0H887q-13 0-21.5 8T857 30v528H373V30q0-14-8.5-22T343 0H173q-13 0-21.5 8T143 30v1280q0 14 8.5 22t21.5 8h170q13 0 21.5-8t8.5-22V764h484v546q0 14 8.5 22t21.5 8z"/><glyph glyph-name="Iotatonos" unicode="Ί" vert-adv-y="1980" d="M-100 1030h-138q-17 0-24 9t0 25l120 252q11 24 34 24H30q17 0 24-9t0-25l-120-252q-11-24-34-24zM1068 0H162q-14 0-22 8t-8 22v146q0 14 8 22t22 8h338v928H162q-14 0-22 8t-8 22v146q0 14 8 22t22 8h906q14 0 22-8t8-22v-146q0-14-8-22t-22-8H730V206h338q14 0 22-8t8-22V30q0-14-8-22t-22-8z"/><glyph glyph-name="Omicrontonos" unicode="Ό" vert-adv-y="1980" d="M615-30q-259 0-380.5 162T113 665q0 250 55.5 404T333 1291.5t282 68.5 282-68.5 164.5-222.5 55.5-404q0-371-121.5-533T615-30zM-17 1030h-138q-17 0-24 9t0 25l120 252q11 24 34 24h138q17 0 24-9t0-25L17 1054q-11-24-34-24zm632-839q53 0 93.5 12t76.5 43 59 83.5 36 137T893 665t-13 198.5-36 137-59 83.5-76.5 43-93.5 12-93.5-12-76.5-43-59-83.5-36-137T337 665t13-198.5 36-137 59-83.5 76.5-43 93.5-12z"/><glyph glyph-name="Upsilontonos" unicode="Ύ" vert-adv-y="1980" d="M-186 1340h138q17 0 24-9t0-25l-120-252q-11-24-34-24h-138q-17 0-24 9t0 25l120 252q11 24 34 24zm1142 0h180q18 0 23.5-10t-3.5-26L730 518V30q0-14-8-22t-22-8H530q-14 0-22 8t-8 22v490L74 1304q-9 16-3.5 26t23.5 10h180q26 0 36-20l305-582 305 582q10 20 36 20z"/><glyph glyph-name="Omegatonos" unicode="Ώ" vert-adv-y="1980" d="M508 0H131q-26 0-26 26v133q0 26 26 26h181v35Q103 328 103 753q0 307 122 457t390 150 390-150 122-457q0-425-209-533v-35h181q26 0 26-26V26q0-26-26-26H722q-26 0-26 26v286q68 23 111.5 67.5T877 514t26 228q0 71-7 126.5t-26 108-50.5 87-83.5 55-121 20.5-121-20.5-83.5-55-50.5-87-26-108-7-126.5q0-138 26-228t69.5-134.5T534 312V26q0-26-26-26zM-19 1030h-138q-17 0-24 9t0 25l120 252q11 24 34 24h138q17 0 24-9t0-25L15 1054q-11-24-34-24z"/><glyph glyph-name="iotadieresistonos" unicode="ΐ" vert-adv-y="1980" d="M660 1090H522q-17 0-24 9t0 25l120 252q11 24 34 24h138q17 0 24-9t0-25l-120-252q-11-24-34-24zm-328 0q-48 0-82.5 34.5T215 1208q0 48 34.5 82t82.5 34 82.5-34 34.5-82q0-49-34.5-83.5T332 1090zm612 0q-48 0-82.5 34.5T827 1208q0 48 34.5 82t82.5 34 82.5-34 34.5-82q0-49-34.5-83.5T944 1090zM816-16q-347 0-347 341v635q0 14 8.5 22t21.5 8h162q13 0 21.5-8t8.5-22V363q0-99 46.5-139T870 184q32 0 59 4 26 2 26-22V21q0-18-17-23-60-14-122-14z"/><glyph glyph-name="Alpha" unicode="Α" vert-adv-y="1980" d="M793 1316L1159 34q9-34-24-34H964q-29 0-34 24l-69 252H369L300 24q-5-24-34-24H95Q62 0 71 34l366 1282q7 24 35 24h286q28 0 35-24zm-198-214L423 475h384l-172 627h-40z"/><glyph glyph-name="Beta" unicode="Β" vert-adv-y="1980" d="M632 0H158q-14 0-22 8t-8 22v1280q0 14 8 22t22 8h490q109 0 189.5-26.5t125-73.5 65.5-103 21-123q0-105-52-180.5T830 733v-20q290-45 290-340 0-186-116-279.5T632 0zM358 1134V806h269q107 0 155.5 44T831 980q0 82-47.5 118T627 1134H358zm0-521V206h276q135 0 194.5 46T888 402q0 103-60 157t-194 54H358z"/><glyph glyph-name="Gamma" unicode="Γ" vert-adv-y="1980" d="M1051 1340q13 0 21.5-8t8.5-22v-146q0-14-8.5-22t-21.5-8H399V30q0-14-8.5-22T369 0H199q-13 0-21.5 8T169 30v1280q0 14 8.5 22t21.5 8h852z"/><glyph glyph-name="uni0394" unicode="Δ" vert-adv-y="1980" d="M793 1316L1164 34q8-34-24-34H90Q58 0 66 34l371 1282q7 24 35 24h286q28 0 35-24zm-158-214h-40L339 183h552z"/><glyph glyph-name="Epsilon" unicode="Ε" vert-adv-y="1980" d="M1041 0H189q-13 0-21.5 8T159 30v1280q0 14 8.5 22t21.5 8h850q13 0 21.5-8t8.5-22v-146q0-14-8.5-22t-21.5-8H389V781h605q14 0 22-8.5t8-21.5V605q0-13-8-21.5t-22-8.5H389V206h652q13 0 21.5-8t8.5-22V30q0-14-8.5-22T1041 0z"/><glyph glyph-name="Zeta" unicode="Ζ" vert-adv-y="1980" d="M1071 0H159q-13 0-21.5 8T129 30v156q0 20 12 36l687 912H179q-13 0-21.5 8t-8.5 22v146q0 14 8.5 22t21.5 8h872q13 0 21.5-8t8.5-22v-156q0-20-12-36L382 206h689q13 0 21.5-8t8.5-22V30q0-14-8.5-22T1071 0z"/><glyph glyph-name="Eta" unicode="Η" vert-adv-y="1980" d="M887 1340h170q13 0 21.5-8t8.5-22V30q0-14-8.5-22T1057 0H887q-13 0-21.5 8T857 30v528H373V30q0-14-8.5-22T343 0H173q-13 0-21.5 8T143 30v1280q0 14 8.5 22t21.5 8h170q13 0 21.5-8t8.5-22V764h484v546q0 14 8.5 22t21.5 8z"/><glyph glyph-name="Theta" unicode="Θ" vert-adv-y="1980" d="M615-30q-259 0-380.5 162T113 665q0 250 55.5 404T333 1291.5t282 68.5 282-68.5 164.5-222.5 55.5-404q0-371-121.5-533T615-30zm0 221q53 0 93.5 12t76.5 43 59 83.5 36 137T893 665t-13 198.5-36 137-59 83.5-76.5 43-93.5 12-93.5-12-76.5-43-59-83.5-36-137T337 665t13-198.5 36-137 59-83.5 76.5-43 93.5-12zm170 386H445q-13 0-21.5 8.5T415 607v116q0 13 8.5 21.5T445 753h340q13 0 21.5-8.5T815 723V607q0-13-8.5-21.5T785 577z"/><glyph glyph-name="Iota" unicode="Ι" vert-adv-y="1980" d="M1068 0H162q-14 0-22 8t-8 22v146q0 14 8 22t22 8h338v928H162q-14 0-22 8t-8 22v146q0 14 8 22t22 8h906q14 0 22-8t8-22v-146q0-14-8-22t-22-8H730V206h338q14 0 22-8t8-22V30q0-14-8-22t-22-8z"/><glyph glyph-name="Kappa" unicode="Κ" vert-adv-y="1980" d="M650 728l499-692q11-15 5.5-25.5T1131 0H941q-23 0-36 18L513 559 349 358V30q0-14-8.5-22T319 0H149q-13 0-21.5 8T119 30v1280q0 14 8.5 22t21.5 8h170q13 0 21.5-8t8.5-22V675l509 649q12 16 36 16h208q19 0 23.5-11t-7.5-25z"/><glyph glyph-name="Lambda" unicode="Λ" vert-adv-y="1980" d="M472 1340h286q28 0 35-24L1164 34q8-34-24-34H969q-29 0-34 24L635 1102h-40L295 24q-5-24-34-24H90Q58 0 66 34l371 1282q7 24 35 24z"/><glyph glyph-name="Mu" unicode="Μ" vert-adv-y="1980" d="M291 0H158q-14 0-22 8t-8 22v1280q0 14 8 22t22 8h186q30 0 36-20l229-964h12l229 964q6 20 36 20h186q14 0 22-8t8-22V30q0-14-8-22t-22-8H939q-13 0-21.5 8T909 30v838h-13L708 123q-6-23-35-23H557q-29 0-35 23L334 868h-13V30q0-14-8.5-22T291 0z"/><glyph glyph-name="Nu" unicode="Ν" vert-adv-y="1980" d="M900 1340h149q13 0 21.5-8t8.5-22V30q0-14-8.5-22T1049 0H847q-26 0-36 20L360 990V30q0-14-8-22t-22-8H181q-13 0-21.5 8T151 30v1280q0 14 8.5 22t21.5 8h202q27 0 36-20l451-968v958q0 14 8 22t22 8z"/><glyph glyph-name="Xi" unicode="Ξ" vert-adv-y="1980" d="M1083 1134H147q-13 0-21.5 8t-8.5 22v146q0 14 8.5 22t21.5 8h936q13 0 21.5-8t8.5-22v-146q0-14-8.5-22t-21.5-8zm-52-545H199q-13 0-21.5 8.5T169 619v146q0 13 8.5 21.5T199 795h832q13 0 21.5-8.5t8.5-21.5V619q0-13-8.5-21.5T1031 589zm54-589H145q-13 0-21.5 8T115 30v146q0 14 8.5 22t21.5 8h940q13 0 21.5-8t8.5-22V30q0-14-8.5-22T1085 0z"/><glyph glyph-name="Omicron" unicode="Ο" vert-adv-y="1980" d="M615-30q-259 0-380.5 162T113 665q0 250 55.5 404T333 1291.5t282 68.5 282-68.5 164.5-222.5 55.5-404q0-371-121.5-533T615-30zm0 221q53 0 93.5 12t76.5 43 59 83.5 36 137T893 665t-13 198.5-36 137-59 83.5-76.5 43-93.5 12-93.5-12-76.5-43-59-83.5-36-137T337 665t13-198.5 36-137 59-83.5 76.5-43 93.5-12z"/><glyph glyph-name="Pi" unicode="Π" vert-adv-y="1980" d="M1041 1344q13 0 21.5-8t8.5-22V30q0-14-8.5-22T1041 0H871q-13 0-21.5 8T841 30v1108H389V30q0-14-8.5-22T359 0H189q-13 0-21.5 8T159 30v1284q0 14 8.5 22t21.5 8h852z"/><glyph glyph-name="Rho" unicode="Ρ" vert-adv-y="1980" d="M177 1340h463q476 0 476-444T640 452H377V30q0-14-8.5-22T347 0H177q-13 0-21.5 8T147 30v1280q0 14 8.5 22t21.5 8zm200-682h247q134 0 202 54t68 184-67.5 184-202.5 54H377V658z"/><glyph glyph-name="Sigma" unicode="Σ" vert-adv-y="1980" d="M1051 0H179q-13 0-21.5 8T149 30v156q0 21 12 36l352 448-352 448q-12 15-12 36v156q0 14 8.5 22t21.5 8h872q13 0 21.5-8t8.5-22v-146q0-14-8.5-22t-21.5-8H401l362-464-362-464h650q13 0 21.5-8t8.5-22V30q0-14-8.5-22T1051 0z"/><glyph glyph-name="Tau" unicode="Τ" vert-adv-y="1980" d="M700 0H530q-14 0-22 8t-8 22v1104H130q-14 0-22 8t-8 22v146q0 14 8 22t22 8h970q14 0 22-8t8-22v-146q0-14-8-22t-22-8H730V30q0-14-8-22t-22-8z"/><glyph glyph-name="Upsilon" unicode="Υ" vert-adv-y="1980" d="M956 1340h180q18 0 23.5-10t-3.5-26L730 518V30q0-14-8-22t-22-8H530q-14 0-22 8t-8 22v490L74 1304q-9 16-3.5 26t23.5 10h180q26 0 36-20l305-582 305 582q10 20 36 20z"/><glyph glyph-name="Phi" unicode="Φ" vert-adv-y="1980" d="M720 1202h5q96 0 172-28.5t125.5-76.5 82-117 46.5-145 14-165-14-165-46.5-145-82-117T897 166.5 725 138h-5V30q0-14-8-22t-22-8H540q-14 0-22 8t-8 22v108h-5q-96 0-172 28.5T207.5 243t-82 117T79 505 65 670t14 165 46.5 145 82 117 125.5 76.5 172 28.5h5v108q0 14 8 22t22 8h150q14 0 22-8t8-22v-108zM505 344h5v652h-5q-127 0-176-81.5T280 670t49-244.5T505 344zm215 0h5q127 0 176 81.5T950 670t-49 244.5T725 996h-5V344z"/><glyph glyph-name="Chi" unicode="Χ" vert-adv-y="1980" d="M738 682l402-646q10-16 4-26t-24-10H940q-25 0-36 20L615 484 326 20Q315 0 290 0H110Q92 0 86 10t4 26l402 646-387 622q-10 16-4 26t24 10h180q25 0 36-20l274-440 274 440q11 20 36 20h180q18 0 24-10t-4-26z"/><glyph glyph-name="Psi" unicode="Ψ" vert-adv-y="1980" d="M961 1340h170q13 0 21.5-8t8.5-22V834q0-124-29-211.5T1044 484t-134-76-180-33V30q0-14-8-22t-22-8H530q-14 0-22 8t-8 22v345q-105 8-180 33t-134 76-88 138.5T69 834v476q0 14 8.5 22t21.5 8h170q13 0 21.5-8t8.5-22V832q0-123 43-171.5T500 602v708q0 14 8 22t22 8h170q14 0 22-8t8-22V602q115 10 158 58.5T931 832v478q0 14 8.5 22t21.5 8z"/><glyph glyph-name="uni03A9" unicode="Ω" vert-adv-y="1980" d="M508 0H131q-26 0-26 26v133q0 26 26 26h181v35Q103 328 103 753q0 307 122 457t390 150 390-150 122-457q0-425-209-533v-35h181q26 0 26-26V26q0-26-26-26H722q-26 0-26 26v286q68 23 111.5 67.5T877 514t26 228q0 71-7 126.5t-26 108-50.5 87-83.5 55-121 20.5-121-20.5-83.5-55-50.5-87-26-108-7-126.5q0-138 26-228t69.5-134.5T534 312V26q0-26-26-26z"/><glyph glyph-name="Iotadieresis" unicode="Ϊ" vert-adv-y="1980" d="M411 1621q-48 0-82 34.5t-34 83.5q0 48 34.5 82t81.5 34q48 0 82.5-34t34.5-82q0-49-34.5-83.5T411 1621zm408 0q-48 0-82 34.5t-34 83.5q0 48 34.5 82t81.5 34q48 0 82.5-34t34.5-82q0-49-34.5-83.5T819 1621zM1068 0H162q-14 0-22 8t-8 22v146q0 14 8 22t22 8h338v928H162q-14 0-22 8t-8 22v146q0 14 8 22t22 8h906q14 0 22-8t8-22v-146q0-14-8-22t-22-8H730V206h338q14 0 22-8t8-22V30q0-14-8-22t-22-8z"/><glyph glyph-name="Upsilondieresis" unicode="Ϋ" vert-adv-y="1980" d="M411 1621q-48 0-82 34.5t-34 83.5q0 48 34.5 82t81.5 34q48 0 82.5-34t34.5-82q0-49-34.5-83.5T411 1621zm408 0q-48 0-82 34.5t-34 83.5q0 48 34.5 82t81.5 34q48 0 82.5-34t34.5-82q0-49-34.5-83.5T819 1621zm137-281h180q18 0 23.5-10t-3.5-26L730 518V30q0-14-8-22t-22-8H530q-14 0-22 8t-8 22v490L74 1304q-9 16-3.5 26t23.5 10h180q26 0 36-20l305-582 305 582q10 20 36 20z"/><glyph glyph-name="alphatonos" unicode="ά" vert-adv-y="1980" d="M685 1195H547q-17 0-24 9t0 25l120 252q11 24 34 24h138q17 0 24-9t0-25l-120-252q-11-24-34-24zm482-1034q18-2 18-18V12q0-38-91-38-90 0-134 58.5T916 183v3Q860 86 767.5 30T555-26q-201 0-329.5 147.5T97 493t128.5 371.5T555 1012q205 0 325-157v105q0 14 8 22t22 8h162q14 0 22-8t8-22V259q0-47 14-70.5t51-27.5zm-571 17q123 0 203.5 88T880 493t-80.5 227T596 808t-204-88-81-227 81-227 204-88z"/><glyph glyph-name="epsilontonos" unicode="έ" vert-adv-y="1980" d="M685 1195H547q-17 0-24 9t0 25l120 252q11 24 34 24h138q17 0 24-9t0-25l-120-252q-11-24-34-24zM613-26Q498-26 409-8T267.5 38.5t-86 67-45 75T125 256q0 79 50.5 143T322 494q-86 30-131 93t-45 141q0 40 11 76.5t43.5 75.5 82.5 67.5 136 47 197 18.5q249 0 464-84 15-6 15-25V743q0-23-27-13-219 81-446 81-247 0-247-118 0-113 204-113h276q30 0 30-29V437q0-13-8.5-21t-21.5-8H579q-224 0-224-114 0-64 68.5-90.5T619 177q240 0 459 80 27 12 27-13V83q0-19-15-25-218-84-477-84z"/><glyph glyph-name="etatonos" unicode="ή" vert-adv-y="1980" d="M725 1195H587q-17 0-24 9t0 25l120 252q11 24 34 24h138q17 0 24-9t0-25l-120-252q-11-24-34-24zm28-183q162 0 263-110.5T1117 598v-948q0-14-8.5-22t-21.5-8H925q-13 0-21.5 8t-8.5 22v907q0 115-63.5 182.5T656 807t-176.5-68T415 557V30q0-14-8.5-22T385 0H223q-13 0-21.5 8T193 30v697q0 48-13.5 71T129 825q-18 1-18 18v131q0 38 102 38 92 0 145-53t57-139h28q39 86 119 139t191 53z"/><glyph glyph-name="iotatonos" unicode="ί" vert-adv-y="1980" d="M650 1195H512q-17 0-24 9t0 25l120 252q11 24 34 24h138q17 0 24-9t0-25l-120-252q-11-24-34-24zM816-16q-347 0-347 341v635q0 14 8.5 22t21.5 8h162q13 0 21.5-8t8.5-22V363q0-99 46.5-139T870 184q32 0 59 4 26 2 26-22V21q0-18-17-23-60-14-122-14z"/><glyph glyph-name="upsilondieresistonos" unicode="ΰ" vert-adv-y="1980" d="M685 1080H547q-17 0-24 9t0 25l120 252q11 24 34 24h138q17 0 24-9t0-25l-120-252q-11-24-34-24zm-328 0q-48 0-82.5 34.5T240 1198q0 48 34.5 82t82.5 34 82.5-34 34.5-82q0-49-34.5-83.5T357 1080zm612 0q-48 0-82.5 34.5T852 1198q0 48 34.5 82t82.5 34 82.5-34 34.5-82q0-49-34.5-83.5T969 1080zM617-26Q523-26 440-.5t-147.5 74-102 126T153 374v586q0 14 8.5 22t21.5 8h162q13 0 21.5-8t8.5-22V436q0-120 61-188t182-68q257 0 257 322 0 239-161 461-7 11-3.5 19t15.5 8h190q16 0 26-15 155-241 155-506 0-117-31.5-208t-80-143.5-115-86.5T743-14.5 617-26z"/><glyph glyph-name="alpha" unicode="α" vert-adv-y="1980" d="M1167 161q18-2 18-18V12q0-38-91-38-90 0-134 58.5T916 183v3Q860 86 767.5 30T555-26q-201 0-329.5 147.5T97 493t128.5 371.5T555 1012q205 0 325-157v105q0 14 8 22t22 8h162q14 0 22-8t8-22V259q0-47 14-70.5t51-27.5zm-571 17q123 0 203.5 88T880 493t-80.5 227T596 808t-204-88-81-227 81-227 204-88z"/><glyph glyph-name="beta" unicode="β" vert-adv-y="1980" d="M800 740q311-52 311-358 0-200-131-291T580 0H341v-350q0-14-8.5-22t-21.5-8H149q-13 0-21.5 8t-8.5 22v1351q0 194 118 296.5T577 1400q213 0 333.5-94t120.5-265q0-128-65.5-204.5T800 740zM341 177h224q171 0 251.5 46.5T897 392q0 129-87 182.5T555 628h-79q-14 0-22 8t-8 22v117q0 13 8 21.5t22 8.5h79q132 0 197 53.5t65 153.5q0 95-59.5 141T575 1199q-126 0-180-48t-54-150V177z"/><glyph glyph-name="gamma" unicode="γ" vert-adv-y="1980" d="M1018 975q70-158 68-353-1-81-17-153.5t-39.5-126-60-102T900 160t-75.5-62.5-71-46.5T689 17l-6-3v-364q0-14-8.5-22t-21.5-8H491q-13 0-21.5 8t-8.5 22V71L125 956q-12 34 24 34h162q27 0 36-24l281-753q113 50 176.5 164.5T868 644q0 157-70 318-12 28 15 28h182q17 0 23-15z"/><glyph glyph-name="delta" unicode="δ" vert-adv-y="1980" d="M924 911q94-71 146-179.5t52-238.5q0-222-143.5-370T615-25 251.5 123 108 493q0 189 107 327t280 177q-47 33-75 54.5t-67 60.5-58.5 83-19.5 92q0 85 58.5 144t157.5 59h453q26 0 26-26v-142q0-26-26-26H579q-66 0-66-47 0-10 3-19t11-19.5 13.5-17 20.5-18 21-16 25.5-18T632 1124zM615 181q128 0 209.5 86.5T906 493t-81.5 225T615 804t-209.5-86T324 493t81.5-225.5T615 181z"/><glyph glyph-name="epsilon" unicode="ε" vert-adv-y="1980" d="M613-26Q498-26 409-8T267.5 38.5t-86 67-45 75T125 256q0 79 50.5 143T322 494q-86 30-131 93t-45 141q0 40 11 76.5t43.5 75.5 82.5 67.5 136 47 197 18.5q249 0 464-84 15-6 15-25V743q0-23-27-13-219 81-446 81-247 0-247-118 0-113 204-113h276q30 0 30-29V437q0-13-8.5-21t-21.5-8H579q-224 0-224-114 0-64 68.5-90.5T619 177q240 0 459 80 27 12 27-13V83q0-19-15-25-218-84-477-84z"/><glyph glyph-name="zeta" unicode="ζ" vert-adv-y="1980" d="M409 490q0-65 21.5-114.5T488 295t83-55 99-43.5T773.5 156t98.5-52 83-72 57.5-106.5T1034-224v-126q0-14-8-22t-22-8H842q-14 0-22 8t-8 22v69q0 71-21 125t-56.5 88-82 60T555 38.5l-102 41-97.5 49-82 66.5-56.5 98.5L196 432q0 199 126.5 419.5T643 1214H240q-14 0-22 8t-8 22v126q0 14 8 22t22 8h661q13 0 21.5-8t8.5-22v-156q-86-32-180-112.5T582 921 458 704.5 409 490z"/><glyph glyph-name="eta" unicode="η" vert-adv-y="1980" d="M753 1012q162 0 263-110.5T1117 598v-948q0-14-8.5-22t-21.5-8H925q-13 0-21.5 8t-8.5 22v907q0 115-63.5 182.5T656 807t-176.5-68T415 557V30q0-14-8.5-22T385 0H223q-13 0-21.5 8T193 30v697q0 48-13.5 71T129 825q-18 1-18 18v131q0 38 102 38 92 0 145-53t57-139h28q39 86 119 139t191 53z"/><glyph glyph-name="theta" unicode="θ" vert-adv-y="1980" d="M615 1360q130 0 221.5-35.5T992 1208t94.5-214.5T1117 666t-30.5-328T992 122.5 836.5 5.5 615-30 393.5 5.5 238 122.5 143.5 338 113 666t30.5 327.5T238 1208t155.5 116.5T615 1360zm0-215q-66 0-112-15.5t-85-56.5-61-119-28-196h572q-6 118-28 196t-61 119-85 56.5-112 15.5zm0-960q65 0 111 15.5t85.5 56.5T873 376t28 196H329q6-118 28-196t61.5-119 85.5-56.5T615 185z"/><glyph glyph-name="iota" unicode="ι" vert-adv-y="1980" d="M816-16q-347 0-347 341v635q0 14 8.5 22t21.5 8h162q13 0 21.5-8t8.5-22V363q0-99 46.5-139T870 184q32 0 59 4 26 2 26-22V21q0-18-17-23-60-14-122-14z"/><glyph glyph-name="kappa" unicode="κ" vert-adv-y="1980" d="M695 552l454-516q12-15 7-25.5T1132 0H932q-23 0-36 16L553 408 365 217V30q0-14-8.5-22T335 0H173q-13 0-21.5 8T143 30v930q0 14 8.5 22t21.5 8h162q13 0 21.5-8t8.5-22V489l327 343q91 96 171 132t212 36V817q-74 0-120-23.5T833 692z"/><glyph glyph-name="lambda" unicode="λ" vert-adv-y="1980" d="M1097 0H935q-27 0-36 24L615 740 331 24q-9-24-36-24H133q-17 0-24 9t0 25l395 958-142 344q-7 16 0 25t24 9h162q27 0 36-24L1121 34q7-16 0-25t-24-9z"/><glyph glyph-name="uni03BC" unicode="μ" vert-adv-y="1980" d="M885 990h162q13 0 21.5-8t8.5-22V30q0-14-8.5-22T1047 0H893q-28 0-30 30l-8 142h-28Q788 86 708 33T517-20q-76 0-142 26v-356q0-14-8.5-22t-21.5-8H183q-13 0-21.5 8t-8.5 22V960q0 14 8.5 22t21.5 8h162q13 0 21.5-8t8.5-22V435q0-115 63.5-182.5T614 185t176.5 68T855 435v525q0 14 8.5 22t21.5 8z"/><glyph glyph-name="nu" unicode="ν" vert-adv-y="1980" d="M1038 975q70-158 68-353-1-81-17-153.5t-39.5-126-60-102T920 160t-75.5-62.5-71-46.5T709 17Q673 0 644 0H535q-27 0-36 24L145 956q-12 34 24 34h162q27 0 36-24l281-753q113 50 176.5 164.5T888 644q0 157-70 318-12 28 15 28h182q17 0 23-15z"/><glyph glyph-name="xi" unicode="ξ" vert-adv-y="1980" d="M739 177q53 0 92-4.5t84.5-23 74-50.5 48-91.5T1057-134v-216q0-14-8.5-22t-21.5-8H865q-13 0-21.5 8t-8.5 22v189q0 93-31.5 127T694 0Q436 0 305.5 93.5T175 385q0 302 295 354-92 17-155.5 85.5T251 997q0 151 137 226H228q-14 0-22 8.5t-8 21.5v117q0 14 8 22t22 8h699q13 0 21.5-8t8.5-22v-117q0-13-8.5-21.5T927 1223H711q-126 0-189-53.5T459 1015q0-210 272-210h122q13 0 21.5-8.5T883 775V658q0-14-8.5-22t-21.5-8H731q-170 0-256-50.5T389 400q0-124 84.5-173.5T739 177z"/><glyph glyph-name="omicron" unicode="ο" vert-adv-y="1980" d="M615-25q-220 0-363.5 148T108 493t143.5 369.5T615 1010t363.5-147.5T1122 493 978.5 123 615-25zm0 206q128 0 209.5 86.5T906 493t-81.5 225T615 804t-209.5-86T324 493t81.5-225.5T615 181z"/><glyph glyph-name="pi" unicode="π" vert-adv-y="1980" d="M1116 804H966V274q0-42 21-64t57-22q40 0 64 4 16 3 26-5t10-23V42q0-30-46-43T990-14q-111 0-178.5 61T744 240v564H475V30q0-14-8.5-22T445 0H283q-13 0-21.5 8T253 30v774H114q-14 0-22 8t-8 22v126q0 14 8 22t22 8h1002q14 0 22-8t8-22V834q0-14-8-22t-22-8z"/><glyph glyph-name="rho" unicode="ρ" vert-adv-y="1980" d="M636 1010q220 0 363.5-147.5T1143 493 999.5 123 636-25q-160 0-285 83v-408q0-14-8.5-22t-21.5-8H159q-13 0-21.5 8t-8.5 22v843q0 222 143.5 369.5T636 1010zm0-829q128 0 209.5 86.5T927 493t-81.5 225T636 804t-209.5-86T345 493t81.5-225.5T636 181z"/><glyph glyph-name="uni03C2" unicode="ς" vert-adv-y="1980" d="M901-380H733q-13 0-16 7t4 17q49 68 49 150 0 71-43 122.5T566 6q-65 21-121.5 49.5T334 128t-93 97.5T178.5 352 155 509q0 221 145 362t364 141q138 0 249.5-59.5T1091 792q17-23-10-41l-117-77q-22-14-40 8-100 126-259 126-129 0-212.5-80T369 511q0-128 76.5-204T656 187q77-25 130.5-51.5t103.5-67 75.5-99T991-164q0-124-66-205-8-11-24-11z"/><glyph glyph-name="sigma" unicode="σ" vert-adv-y="1980" d="M1046 990h130q14 0 22-8t8-22V841q0-13-8-21.5t-22-8.5h-154q100-134 100-318 0-222-143.5-370T615-25 251.5 123 108 493t143.5 369.5T615 1010h2l-2 2q56 0 186-11t245-11zM615 181q128 0 209.5 86.5T906 493t-81.5 225T615 804t-209.5-86T324 493t81.5-225.5T615 181z"/><glyph glyph-name="tau" unicode="τ" vert-adv-y="1980" d="M1100 990q14 0 22-8t8-22V834q0-14-8-22t-22-8H691V363q0-99 46.5-139T870 184q32 0 59 4 26 2 26-22V21q0-18-17-23-60-14-122-14-347 0-347 341v479H130q-14 0-22 8t-8 22v126q0 14 8 22t22 8h970z"/><glyph glyph-name="upsilon" unicode="υ" vert-adv-y="1980" d="M617-26Q523-26 440-.5t-147.5 74-102 126T153 374v586q0 14 8.5 22t21.5 8h162q13 0 21.5-8t8.5-22V436q0-120 61-188t182-68q257 0 257 322 0 239-161 461-7 11-3.5 19t15.5 8h190q16 0 26-15 155-241 155-506 0-117-31.5-208t-80-143.5-115-86.5T743-14.5 617-26z"/><glyph glyph-name="phi" unicode="φ" vert-adv-y="1980" d="M1148 491q0-224-111-356.5T719-25v-325q0-14-8.5-22t-21.5-8H541q-13 0-21.5 8t-8.5 22v325Q304 2 193 134.5T82 491t111 356.5T511 1007v324q0 13 8.5 21.5t21.5 8.5h148q13 0 21.5-8.5t8.5-21.5v-324q207-27 318-159.5T1148 491zM719 801V181q118 20 171.5 95.5T944 491t-53.5 214.5T719 801zM286 491q0-139 53.5-214T511 181v620q-118-21-171.5-96T286 491z"/><glyph glyph-name="chi" unicode="χ" vert-adv-y="1980" d="M1109-196q29 0 29-31v-123q0-30-30-30-73 0-120.5 6T891-349t-84.5 58.5T743-189L614 97 356-359q-12-21-36-21H162q-17 0-23.5 10.5T140-344l374 662-152 338q-41 93-95 126.5T136 816q-29 0-29 31v123q0 30 30 30 73 0 122-6t98.5-25 86-58.5T508 809l126-279 248 439q12 21 35 21h160q17 0 23.5-10.5T1098 954L734 309 889-35q42-94 93.5-127.5T1109-196z"/><glyph glyph-name="psi" unicode="ψ" vert-adv-y="1980" d="M1142 513q0-110-25-198t-66-145.5T953 71 838 9.5 714-20v-330q0-14-8-22t-22-8H538q-14 0-22 8t-8 22v331Q326 5 215.5 108T105 386v574q0 14 8.5 22t21.5 8h154q13 0 21.5-8t8.5-22V436q0-204 189-246v950q0 14 8 22t22 8h146q14 0 22-8t8-22V189q114 23 164 106t50 235q0 233-94 436-5 10-.5 17t15.5 7h176q15 0 23-15 94-209 94-462z"/><glyph glyph-name="omega" unicode="ω" vert-adv-y="1980" d="M346-26q-41 0-79.5 11.5t-80.5 45-72 86.5-50 142.5T44 466q0 276 102 509 5 15 26 15h182q12 0 15.5-7.5T366 963Q260 730 260 473q0-293 134-293 131 0 131 250v274q0 14 8.5 22t21.5 8h120q13 0 21.5-8t8.5-22V430q0-250 130-250 135 0 135 293 0 257-106 490-7 12-3.5 19.5T876 990h182q21 0 26-15 102-233 102-509 0-117-20-206.5T1116 117t-72-86.5-80.5-45T883-26q-91 0-163.5 55.5T615 191Q583 85 510 29.5T346-26z"/><glyph glyph-name="iotadieresis" unicode="ϊ" vert-adv-y="1980" d="M376 1271q-48 0-82 34.5t-34 83.5q0 48 34.5 82t81.5 34q48 0 82.5-34t34.5-82q0-49-34.5-83.5T376 1271zm408 0q-48 0-82 34.5t-34 83.5q0 48 34.5 82t81.5 34q48 0 82.5-34t34.5-82q0-49-34.5-83.5T784 1271zM816-16q-347 0-347 341v635q0 14 8.5 22t21.5 8h162q13 0 21.5-8t8.5-22V363q0-99 46.5-139T870 184q32 0 59 4 26 2 26-22V21q0-18-17-23-60-14-122-14z"/><glyph glyph-name="upsilondieresis" unicode="ϋ" vert-adv-y="1980" d="M401 1261q-48 0-82 34.5t-34 83.5q0 48 34.5 82t81.5 34q48 0 82.5-34t34.5-82q0-49-34.5-83.5T401 1261zm408 0q-48 0-82 34.5t-34 83.5q0 48 34.5 82t81.5 34q48 0 82.5-34t34.5-82q0-49-34.5-83.5T809 1261zM617-26Q523-26 440-.5t-147.5 74-102 126T153 374v586q0 14 8.5 22t21.5 8h162q13 0 21.5-8t8.5-22V436q0-120 61-188t182-68q257 0 257 322 0 239-161 461-7 11-3.5 19t15.5 8h190q16 0 26-15 155-241 155-506 0-117-31.5-208t-80-143.5-115-86.5T743-14.5 617-26z"/><glyph glyph-name="omicrontonos" unicode="ό" vert-adv-y="1980" d="M685 1195H547q-17 0-24 9t0 25l120 252q11 24 34 24h138q17 0 24-9t0-25l-120-252q-11-24-34-24zM615-25q-220 0-363.5 148T108 493t143.5 369.5T615 1010t363.5-147.5T1122 493 978.5 123 615-25zm0 206q128 0 209.5 86.5T906 493t-81.5 225T615 804t-209.5-86T324 493t81.5-225.5T615 181z"/><glyph glyph-name="upsilontonos" unicode="ύ" vert-adv-y="1980" d="M675 1185H537q-17 0-24 9t0 25l120 252q11 24 34 24h138q17 0 24-9t0-25l-120-252q-11-24-34-24zM617-26Q523-26 440-.5t-147.5 74-102 126T153 374v586q0 14 8.5 22t21.5 8h162q13 0 21.5-8t8.5-22V436q0-120 61-188t182-68q257 0 257 322 0 239-161 461-7 11-3.5 19t15.5 8h190q16 0 26-15 155-241 155-506 0-117-31.5-208t-80-143.5-115-86.5T743-14.5 617-26z"/><glyph glyph-name="omegatonos" unicode="ώ" vert-adv-y="1980" d="M685 1185H547q-17 0-24 9t0 25l120 252q11 24 34 24h138q17 0 24-9t0-25l-120-252q-11-24-34-24zM346-26q-41 0-79.5 11.5t-80.5 45-72 86.5-50 142.5T44 466q0 276 102 509 5 15 26 15h182q12 0 15.5-7.5T366 963Q260 730 260 473q0-293 134-293 131 0 131 250v274q0 14 8.5 22t21.5 8h120q13 0 21.5-8t8.5-22V430q0-250 130-250 135 0 135 293 0 257-106 490-7 12-3.5 19.5T876 990h182q21 0 26-15 102-233 102-509 0-117-20-206.5T1116 117t-72-86.5-80.5-45T883-26q-91 0-163.5 55.5T615 191Q583 85 510 29.5T346-26z"/><glyph glyph-name="uni03CF" unicode="Ϗ" vert-adv-y="1980" d="M1154 16h3q2-88-23.5-158.5t-68.5-115-102-74T844.5-373 722-385q-64 0-124.5 13t-103 32.5-73.5 42-42.5 44T376-218l66 106q16 26 46 5 109-76 220-76 114 0 176.5 58T900 8l-8 8-347 397-180-184V30q0-14-8.5-22T335 0H173q-13 0-21.5 8T143 30v930q0 14 8.5 22t21.5 8h162q13 0 21.5-8t8.5-22V499l460 475q17 16 38 16h199q20 0 24.5-11t-9.5-25L687 557l458-521q9-10 9-20z"/><glyph glyph-name="uni03D7" unicode="ϗ" vert-adv-y="1980" d="M1181 184q26 2 26-22v-292q0-95-28-162.5t-78.5-104T991-449t-131-16q-65 0-121 15-18 4-18 23v145q0 25 27 21 30-3 58-3 86 0 132.5 38.5T985-91v84Q827 39 827 239v431L437 20Q425 0 399 0H211q-13 0-21.5 8T181 30v661q0 60-16.5 84.5T104 800q-15 0-55-4-26-2-26 22v145q0 18 17 23 60 14 107 14 114 0 185-61t71-198V320l390 650q12 20 38 20h188q13 0 21.5-8t8.5-22V289q0-60 16.5-84.5T1126 180q15 0 55 4z"/><glyph glyph-name="uni0401" unicode="Ё" vert-adv-y="1980" d="M411 1621q-48 0-82 34.5t-34 83.5q0 48 34.5 82t81.5 34q48 0 82.5-34t34.5-82q0-49-34.5-83.5T411 1621zm408 0q-48 0-82 34.5t-34 83.5q0 48 34.5 82t81.5 34q48 0 82.5-34t34.5-82q0-49-34.5-83.5T819 1621zM1041 0H189q-13 0-21.5 8T159 30v1280q0 14 8.5 22t21.5 8h850q13 0 21.5-8t8.5-22v-146q0-14-8.5-22t-21.5-8H389V781h605q14 0 22-8.5t8-21.5V605q0-13-8-21.5t-22-8.5H389V206h652q13 0 21.5-8t8.5-22V30q0-14-8.5-22T1041 0z"/><glyph glyph-name="uni0403" unicode="Ѓ" vert-adv-y="1980" d="M690 1545H552q-17 0-24 9t0 25l120 252q11 24 34 24h138q17 0 24-9t0-25l-120-252q-11-24-34-24zm361-205q13 0 21.5-8t8.5-22v-146q0-14-8.5-22t-21.5-8H399V30q0-14-8.5-22T369 0H199q-13 0-21.5 8T169 30v1280q0 14 8.5 22t21.5 8h852z"/><glyph glyph-name="uni0404" unicode="Є" vert-adv-y="1980" d="M949 434h155q30 0 27-33-7-117-44-201.5t-100.5-134T840.5-7 652-30q-272 0-396.5 161.5T131 665q0 373 124.5 534T652 1360q108 0 189-24t145.5-78.5 101-151T1131 872q3-33-27-33H949q-28 0-32 26-9 84-32 139.5t-59.5 84-77 39.5-96.5 11q-70 0-119-17.5t-89-62-62-127T356 726h418q14 0 22-8t8-22v-96q0-14-8-22t-22-8H358q6-113 28.5-189T449 264t88-57 115-16q116 0 181.5 47T917 408q4 26 32 26z"/><glyph glyph-name="uni0406" unicode="І" vert-adv-y="1980" d="M1068 0H162q-14 0-22 8t-8 22v146q0 14 8 22t22 8h338v928H162q-14 0-22 8t-8 22v146q0 14 8 22t22 8h906q14 0 22-8t8-22v-146q0-14-8-22t-22-8H730V206h338q14 0 22-8t8-22V30q0-14-8-22t-22-8z"/><glyph glyph-name="uni0407" unicode="Ї" vert-adv-y="1980" d="M411 1621q-48 0-82 34.5t-34 83.5q0 48 34.5 82t81.5 34q48 0 82.5-34t34.5-82q0-49-34.5-83.5T411 1621zm408 0q-48 0-82 34.5t-34 83.5q0 48 34.5 82t81.5 34q48 0 82.5-34t34.5-82q0-49-34.5-83.5T819 1621zM1068 0H162q-14 0-22 8t-8 22v146q0 14 8 22t22 8h338v928H162q-14 0-22 8t-8 22v146q0 14 8 22t22 8h906q14 0 22-8t8-22v-146q0-14-8-22t-22-8H730V206h338q14 0 22-8t8-22V30q0-14-8-22t-22-8z"/><glyph glyph-name="uni0410" unicode="А" vert-adv-y="1980" d="M793 1316L1159 34q9-34-24-34H964q-29 0-34 24l-69 252H369L300 24q-5-24-34-24H95Q62 0 71 34l366 1282q7 24 35 24h286q28 0 35-24zm-198-214L423 475h384l-172 627h-40z"/><glyph glyph-name="uni0411" unicode="Б" vert-adv-y="1980" d="M377 888h263q476 0 476-444T640 0H177q-13 0-21.5 8T147 30v1280q0 14 8.5 22t21.5 8h706q13 0 21.5-8t8.5-22v-146q0-14-8.5-22t-21.5-8H377V888zm0-682h247q135 0 202.5 54T894 444t-68 184-202 54H377V206z"/><glyph glyph-name="uni0412" unicode="В" vert-adv-y="1980" d="M632 0H158q-14 0-22 8t-8 22v1280q0 14 8 22t22 8h490q109 0 189.5-26.5t125-73.5 65.5-103 21-123q0-105-52-180.5T830 733v-20q290-45 290-340 0-186-116-279.5T632 0zM358 1134V806h269q107 0 155.5 44T831 980q0 82-47.5 118T627 1134H358zm0-521V206h276q135 0 194.5 46T888 402q0 103-60 157t-194 54H358z"/><glyph glyph-name="uni0413" unicode="Г" vert-adv-y="1980" d="M1051 1340q13 0 21.5-8t8.5-22v-146q0-14-8.5-22t-21.5-8H399V30q0-14-8.5-22T369 0H199q-13 0-21.5 8T169 30v1280q0 14 8.5 22t21.5 8h852z"/><glyph glyph-name="uni0414" unicode="Д" vert-adv-y="1980" d="M1043 206h122q13 0 21.5-8t8.5-22v-284q0-14-8.5-22t-21.5-8h-155q-14 0-22 8t-8 22V0H250v-108q0-14-8-22t-22-8H65q-13 0-21.5 8T35-108v284q0 14 8.5 22t21.5 8q195 0 195 230v874q0 14 8 22t22 8h723q13 0 21.5-8t8.5-22V206zm-552 928V432q0-139-66-226h388v928H491z"/><glyph glyph-name="uni0415" unicode="Е" vert-adv-y="1980" d="M1041 0H189q-13 0-21.5 8T159 30v1280q0 14 8.5 22t21.5 8h850q13 0 21.5-8t8.5-22v-146q0-14-8.5-22t-21.5-8H389V781h605q14 0 22-8.5t8-21.5V605q0-13-8-21.5t-22-8.5H389V206h652q13 0 21.5-8t8.5-22V30q0-14-8.5-22T1041 0z"/><glyph glyph-name="uni0416" unicode="Ж" vert-adv-y="1980" d="M860 746l322-710q16-36-18-36h-149q-28 0-36 18L754 545l-40-75V30q0-14-8-22t-22-8H546q-14 0-22 8t-8 22v440l-40 75L251 18q-8-18-36-18H66Q32 0 48 36l322 710-295 558q-18 36 16 36h155q27 0 35-16l235-509v495q0 14 8 22t22 8h138q14 0 22-8t8-22V815l235 509q8 16 35 16h155q34 0 16-36z"/><glyph glyph-name="uni0417" unicode="З" vert-adv-y="1980" d="M840 724v-21q133-36 208.5-121t75.5-214q0-178-142.5-286T605-26Q375-26 243.5 80T112 372q0 30 29 30h154q32 0 33-27 3-97 77-151.5T604 169q132 0 209.5 60T891 390q0 104-89.5 166T526 618q-30 0-30 29v108q0 30 31 30 92 0 159 16.5t103 46 52.5 63T858 983q0 86-70 135t-180 49q-117 0-188.5-55.5T345 960q-1-26-33-26H158q-29 0-29 29 0 186 129.5 292T608 1361q207 0 335.5-93t128.5-250q0-102-59.5-177.5T840 724z"/><glyph glyph-name="uni0418" unicode="И" vert-adv-y="1980" d="M1049 1340q13 0 21.5-8t8.5-22V30q0-14-8.5-22T1049 0H900q-14 0-22 8t-8 22v960L419 20Q409 0 383 0H181q-13 0-21.5 8T151 30v1280q0 14 8.5 22t21.5 8h149q14 0 22-8t8-22V352l451 968q9 20 36 20h202z"/><glyph glyph-name="uni0419" unicode="Й" vert-adv-y="1980" d="M615 1609q-135 0-217.5 77T303 1881q-3 32 29 32h89q25 0 32-30 12-53 54.5-89t107.5-36 107.5 36 54.5 89q7 30 32 30h89q32 0 29-32-12-118-94.5-195T615 1609zm434-269q13 0 21.5-8t8.5-22V30q0-14-8.5-22T1049 0H900q-14 0-22 8t-8 22v960L419 20Q409 0 383 0H181q-13 0-21.5 8T151 30v1280q0 14 8.5 22t21.5 8h149q14 0 22-8t8-22V352l451 968q9 20 36 20h202z"/><glyph glyph-name="uni041A" unicode="К" vert-adv-y="1980" d="M650 728l499-692q11-15 5.5-25.5T1131 0H941q-23 0-36 18L513 559 349 358V30q0-14-8.5-22T319 0H149q-13 0-21.5 8T119 30v1280q0 14 8.5 22t21.5 8h170q13 0 21.5-8t8.5-22V675l509 649q12 16 36 16h208q19 0 23.5-11t-7.5-25z"/><glyph glyph-name="uni041B" unicode="Л" vert-adv-y="1980" d="M1061 1340q13 0 21.5-8t8.5-22V30q0-14-8.5-22T1061 0H891q-13 0-21.5 8T861 30v1104H475V393q0-203-103-304T94-12Q77-12 71 4L21 172q-7 20 15 22 103 8 156 62t53 172v882q0 14 8.5 22t21.5 8h786z"/><glyph glyph-name="uni041C" unicode="М" vert-adv-y="1980" d="M291 0H158q-14 0-22 8t-8 22v1280q0 14 8 22t22 8h186q30 0 36-20l229-964h12l229 964q6 20 36 20h186q14 0 22-8t8-22V30q0-14-8-22t-22-8H939q-13 0-21.5 8T909 30v838h-13L708 123q-6-23-35-23H557q-29 0-35 23L334 868h-13V30q0-14-8.5-22T291 0z"/><glyph glyph-name="uni041D" unicode="Н" vert-adv-y="1980" d="M887 1340h170q13 0 21.5-8t8.5-22V30q0-14-8.5-22T1057 0H887q-13 0-21.5 8T857 30v528H373V30q0-14-8.5-22T343 0H173q-13 0-21.5 8T143 30v1280q0 14 8.5 22t21.5 8h170q13 0 21.5-8t8.5-22V764h484v546q0 14 8.5 22t21.5 8z"/><glyph glyph-name="uni041E" unicode="О" vert-adv-y="1980" d="M615-30q-259 0-380.5 162T113 665q0 250 55.5 404T333 1291.5t282 68.5 282-68.5 164.5-222.5 55.5-404q0-371-121.5-533T615-30zm0 221q53 0 93.5 12t76.5 43 59 83.5 36 137T893 665t-13 198.5-36 137-59 83.5-76.5 43-93.5 12-93.5-12-76.5-43-59-83.5-36-137T337 665t13-198.5 36-137 59-83.5 76.5-43 93.5-12z"/><glyph glyph-name="uni041F" unicode="П" vert-adv-y="1980" d="M1041 1344q13 0 21.5-8t8.5-22V30q0-14-8.5-22T1041 0H871q-13 0-21.5 8T841 30v1108H389V30q0-14-8.5-22T359 0H189q-13 0-21.5 8T159 30v1284q0 14 8.5 22t21.5 8h852z"/><glyph glyph-name="uni0420" unicode="Р" vert-adv-y="1980" d="M177 1340h463q476 0 476-444T640 452H377V30q0-14-8.5-22T347 0H177q-13 0-21.5 8T147 30v1280q0 14 8.5 22t21.5 8zm200-682h247q134 0 202 54t68 184-67.5 184-202.5 54H377V658z"/><glyph glyph-name="uni0421" unicode="С" vert-adv-y="1980" d="M633-30q-272 0-396 161.5T113 665q0 373 124 534t396 161q108 0 189-24t145.5-78.5 101.5-151 44-234.5q2-33-27-33H930q-28 0-31 26-10 84-33 139.5t-59.5 84-77 39.5-96.5 11q-59 0-102-11.5t-81-43-62-84T350.5 864 337 665t13.5-199T388 329.5t62-84 81-43T633 191q116 0 181.5 47T899 408q3 26 31 26h156q29 0 27-33-7-117-44-201.5t-101-134T821.5-7 633-30z"/><glyph glyph-name="uni0422" unicode="Т" vert-adv-y="1980" d="M700 0H530q-14 0-22 8t-8 22v1104H130q-14 0-22 8t-8 22v146q0 14 8 22t22 8h970q14 0 22-8t8-22v-146q0-14-8-22t-22-8H730V30q0-14-8-22t-22-8z"/><glyph glyph-name="uni0423" unicode="У" vert-adv-y="1980" d="M969 1340h179q18 0 23-10.5t-3-25.5L476 20Q465 0 440 0H260q-18 0-23.5 10t3.5 26l252 466-430 802q-8 15-3 25.5t23 10.5h179q25 0 36-20l314-596 322 596q11 20 36 20z"/><glyph glyph-name="uni0424" unicode="Ф" vert-adv-y="1980" d="M720 1202h5q96 0 172-28.5t125.5-76.5 82-117 46.5-145 14-165-14-165-46.5-145-82-117T897 166.5 725 138h-5V30q0-14-8-22t-22-8H540q-14 0-22 8t-8 22v108h-5q-96 0-172 28.5T207.5 243t-82 117T79 505 65 670t14 165 46.5 145 82 117 125.5 76.5 172 28.5h5v108q0 14 8 22t22 8h150q14 0 22-8t8-22v-108zM505 344h5v652h-5q-127 0-176-81.5T280 670t49-244.5T505 344zm215 0h5q127 0 176 81.5T950 670t-49 244.5T725 996h-5V344z"/><glyph glyph-name="uni0425" unicode="Х" vert-adv-y="1980" d="M738 682l402-646q10-16 4-26t-24-10H940q-25 0-36 20L615 484 326 20Q315 0 290 0H110Q92 0 86 10t4 26l402 646-387 622q-10 16-4 26t24 10h180q25 0 36-20l274-440 274 440q11 20 36 20h180q18 0 24-10t-4-26z"/><glyph glyph-name="uni0426" unicode="Ц" vert-adv-y="1980" d="M1039 206h118q13 0 21.5-8t8.5-22v-284q0-14-8.5-22t-21.5-8h-157q-14 0-22 8t-8 22V0H197q-13 0-21.5 8T167 30v1280q0 14 8.5 22t21.5 8h170q13 0 21.5-8t8.5-22V206h412v1104q0 14 8.5 22t21.5 8h170q13 0 21.5-8t8.5-22V206z"/><glyph glyph-name="uni0427" unicode="Ч" vert-adv-y="1980" d="M929 1340h170q13 0 21.5-8t8.5-22V30q0-14-8.5-22T1099 0H929q-13 0-21.5 8T899 30v447q-65-79-161-124t-214-45q-189 0-306 113.5T101 742v568q0 14 8.5 22t21.5 8h170q13 0 21.5-8t8.5-22V788q0-120 75-187.5T610 533q131 0 210 68t79 188v521q0 14 8.5 22t21.5 8z"/><glyph glyph-name="uni0428" unicode="Ш" vert-adv-y="1980" d="M1087 0H143q-13 0-21.5 8T113 30v1280q0 14 8.5 22t21.5 8h143q14 0 22-8t8-22V206h197v1104q0 14 8.5 22t21.5 8h144q13 0 21.5-8t8.5-22V206h197v1104q0 14 8 22t22 8h143q13 0 21.5-8t8.5-22V30q0-14-8.5-22T1087 0z"/><glyph glyph-name="uni0429" unicode="Щ" vert-adv-y="1980" d="M1077 206h80q13 0 21.5-8t8.5-22v-284q0-14-8.5-22t-21.5-8h-157q-14 0-22 8t-8 22V0H143q-13 0-21.5 8T113 30v1280q0 14 8.5 22t21.5 8h143q14 0 22-8t8-22V206h177v1104q0 14 8.5 22t21.5 8h144q13 0 21.5-8t8.5-22V206h177v1104q0 14 8 22t22 8h143q13 0 21.5-8t8.5-22V206z"/><glyph glyph-name="uni042A" unicode="Ъ" vert-adv-y="1980" d="M460 900h211q133 0 226-30.5t145.5-91 75.5-140 23-188.5-23-188.5-75.5-140-145.5-91T671 0H259q-13 0-21.5 8T229 30v1104H89q-13 0-21.5 8t-8.5 22v146q0 14 8.5 22t21.5 8h341q14 0 22-8t8-22V900zm0-694h195q72 0 118.5 10t81 36.5T904 327t15 123-15 123-49.5 74.5-81 36.5T655 694H460V206z"/><glyph glyph-name="uni042B" unicode="Ы" vert-adv-y="1980" d="M413 0H89Q76 0 67.5 8T59 30v1340q0 14 8.5 22t21.5 8h164q13 0 21.5-8t8.5-22V900h130q122 0 207-29.5T753.5 781 823 641t21-191-21-191-69.5-140T620 29.5 413 0zm728 0H977q-13 0-21.5 8T947 30v1340q0 14 8.5 22t21.5 8h164q13 0 21.5-8t8.5-22V30q0-14-8.5-22T1141 0zM409 694H283V206h126q60 0 97 9t65 35 40 74 12 126-12 126-40 74-65 35-97 9z"/><glyph glyph-name="uni042C" unicode="Ь" vert-adv-y="1980" d="M640 0H177q-13 0-21.5 8T147 30v1280q0 14 8.5 22t21.5 8h170q13 0 21.5-8t8.5-22V888h263q476 0 476-444T640 0zm-16 682H377V206h247q135 0 202.5 54T894 444t-68 184-202 54z"/><glyph glyph-name="uni042D" unicode="Э" vert-adv-y="1980" d="M593 1360q272 0 396-161t124-534q0-372-124-533.5T593-30Q487-30 404.5-7T258 65.5t-101 134T113 401q-2 33 27 33h156q28 0 31-26 19-123 84.5-170T593 191q67 0 115 16t87.5 57 62 117T886 570H471q-13 0-21.5 8t-8.5 22v96q0 14 8.5 22t21.5 8h417q-4 124-25.5 206.5t-61.5 127-89 62-119 17.5q-56 0-96.5-11t-77-39.5-59.5-84T327 865q-3-26-31-26H140q-29 0-27 33 7 138 44 234.5t101.5 151T404 1336t189 24z"/><glyph glyph-name="uni042E" unicode="Ю" vert-adv-y="1980" d="M759 1356q105 0 176.5-32t124-109.5 77-212.5 24.5-337-24.5-337-77-212.5T935.5 6 759-26q-80 0-140 17.5T510.5 51t-80 112-50 174.5T358 585h-94V30q0-14-8-22t-22-8H93Q69 0 69 30v1280q0 30 24 30h141q14 0 22-8t8-22V773h95q6 169 33.5 283t79 180 120 93 167.5 27zm0-1157q49 0 82 17t62 64.5 43 143T960 665q0 117-10 201.5T923.5 1002t-43 80-54.5 39-67 10-66.5-10-54-39-43-80-26-135.5T560 665q0-146 14-241.5t42-143 61-64.5 82-17z"/><glyph glyph-name="uni042F" unicode="Я" vert-adv-y="1980" d="M585 1340h463q14 0 22-8t8-22V30q0-14-8-22t-22-8H878q-14 0-22 8t-8 22v422H570L349 23Q338 0 314 0H144q-17 0-23.5 9.5T122 35l234 452q-247 90-247 409 0 444 476 444zm16-682h247v476H601q-135 0-202.5-54T331 896t68-184 202-54z"/><glyph glyph-name="uni0430" unicode="а" vert-adv-y="1980" d="M1083 152q22-14 30.5-26.5T1122 89V60q0-75-104-75-72 0-119 44.5T852 156v29h-11Q809 94 719 34.5T491-25h-49q-151 0-235.5 77.5T122 268q0 127 76 201.5T429 554l399 26v60q0 107-48.5 148T605 829q-106 0-159.5-27.5T384 708q-3-22-28-22H202q-30 0-29 30 10 294 437 294 123 0 208-24t134.5-73 71-116 21.5-161V269q0-56 8.5-79.5T1083 152zm-567-4h31q73 0 134 21t104 71.5T828 365v71l-342-25q-147-11-147-129 0-134 177-134z"/><glyph glyph-name="uni0431" unicode="б" vert-adv-y="1980" d="M683 1013q204 0 323.5-146T1126 496q0-150-54-267.5T914.5 43 673-25q-204 0-327 150l-8-95q-3-30-30-30H164q-14 0-22 8t-8 22v1046q0 162 79 243t246 81h248q61 0 86.5 10t38.5 30h182q-4-67-26.5-111.5t-64.5-69-94-34-125-9.5H513q-88 0-123-40t-35-129V850h19q40 73 118 118t191 45zm-48-836q131 0 204 86.5T912 496q0 145-72.5 230T635 811q-131 0-207.5-85.5T351 496q0-145 76.5-232T635 177z"/><glyph glyph-name="uni0432" unicode="в" vert-adv-y="1980" d="M908 536v-20q114-13 176-77t62-160q0-129-114.5-204T709 0H177q-13 0-21.5 8T147 30v930q0 14 8.5 22t21.5 8h542q159 0 255-69.5t96-186.5q0-75-42-128t-120-70zm-41 169q0 46-33 74t-126 28H369V598h331q94 0 130.5 28.5T867 705zM369 183h362q114 0 158.5 33.5T934 306q0 130-211 130H369V183z"/><glyph glyph-name="uni0433" unicode="г" vert-adv-y="1980" d="M1049 990q13 0 21.5-8t8.5-22V837q0-13-8.5-21.5T1049 807H393V30q0-14-8.5-22T363 0H201q-13 0-21.5 8T171 30v930q0 14 8.5 22t21.5 8h848z"/><glyph glyph-name="uni0434" unicode="д" vert-adv-y="1980" d="M1069 183h82q13 0 21.5-8.5t8.5-21.5v-267q0-14-8.5-22t-21.5-8h-148q-13 0-21.5 8t-8.5 22V0H257v-114q0-14-8.5-22t-21.5-8H79q-13 0-21.5 8T49-114v290q0 20 18 20 94 0 150 60.5T273 436v524q0 14 8.5 22t21.5 8h736q13 0 21.5-8t8.5-22V183zM855 807H487V432q0-161-77-249h445v624z"/><glyph glyph-name="uni0435" unicode="е" vert-adv-y="1980" d="M1105 529q0-51-16.5-72.5T1020 435H338q7-132 97-206t240-74q139 0 246 63 22 13 38 8t40-35q27-33 29.5-52.5T1007 96Q950 40 856.5 7.5T652-25q-238 0-382.5 143.5T125 495q0 230 139.5 372.5T630 1010q221 0 348-134.5T1105 529zM630 820q-116-1-190.5-60.5T345 589h563q-12 112-85.5 172.5T630 820z"/><glyph glyph-name="uni0436" unicode="ж" vert-adv-y="1980" d="M870 562l295-526q20-36-18-36h-143q-28 0-36 16L760 400l-56-82V30q0-14-8-22t-22-8H556q-14 0-22 8t-8 22v288l-56 82L262 16q-8-16-36-16H83Q45 0 65 36l295 526L91 954q-11 16-7.5 26t22.5 10h154q25 0 36-19l230-370v359q0 14 8 22t22 8h118q14 0 22-8t8-22V601l230 370q11 19 36 19h154q19 0 22.5-10t-7.5-26z"/><glyph glyph-name="uni0437" unicode="з" vert-adv-y="1980" d="M879 534v-18q102-28 155.5-89.5T1088 277q0-137-129-220T595-26q-162 0-275 38t-161 98q-24 30 1 58l63 72q20 23 54-5 34-30 111.5-52.5T588 160q144 0 222 36.5T888 302q0 43-32 72t-123 47-243 18q-47 0-47 41v68q0 44 47 44 108 0 181 8.5T782 626t53.5 37 15.5 49q0 116-249 116-192 0-302-68-44-27-67 2l-47 63q-24 31-1 56 51 57 159.5 94.5T607 1013q211 0 329.5-73.5T1055 745q0-75-46-129.5T879 534z"/><glyph glyph-name="uni0438" unicode="и" vert-adv-y="1980" d="M1029 990q13 0 21.5-8t8.5-22V30q0-14-8.5-22T1029 0H867q-13 0-21.5 8T837 30v650L428 20Q415 0 390 0H201q-13 0-21.5 8T171 30v930q0 14 8.5 22t21.5 8h162q13 0 21.5-8t8.5-22V310l409 660q13 20 38 20h189z"/><glyph glyph-name="uni0439" unicode="й" vert-adv-y="1980" d="M615 1201q-135 0-217.5 77T303 1473q-3 32 29 32h89q25 0 32-30 12-53 54.5-89t107.5-36 107.5 36 54.5 89q7 30 32 30h89q32 0 29-32-12-118-94.5-195T615 1201zm414-211q13 0 21.5-8t8.5-22V30q0-14-8.5-22T1029 0H867q-13 0-21.5 8T837 30v650L428 20Q415 0 390 0H201q-13 0-21.5 8T171 30v930q0 14 8.5 22t21.5 8h162q13 0 21.5-8t8.5-22V310l409 660q13 20 38 20h189z"/><glyph glyph-name="uni043A" unicode="к" vert-adv-y="1980" d="M687 557l458-521q13-14 7.5-25T1128 0H928q-23 0-36 16L545 413 365 229V30q0-14-8.5-22T335 0H173q-13 0-21.5 8T143 30v930q0 14 8.5 22t21.5 8h162q13 0 21.5-8t8.5-22V499l460 475q17 16 38 16h199q20 0 24.5-11t-9.5-25z"/><glyph glyph-name="uni043B" unicode="л" vert-adv-y="1980" d="M1097 990q13 0 21.5-8t8.5-22V30q0-14-8.5-22T1097 0H935q-13 0-21.5 8T905 30v777H471V324q0-97-27-163.5t-80-103-120-52T85-10Q55-10 55 9v163q0 23 22 23 90 0 131 41t41 152v572q0 14 8.5 22t21.5 8h818z"/><glyph glyph-name="uni043C" unicode="м" vert-adv-y="1980" d="M1057 990q13 0 21.5-8t8.5-22V30q0-14-8.5-22T1057 0H906q-14 0-22 8t-8 22v585L705 72q-8-22-34-22H559q-26 0-34 22L354 615V30q0-14-8-22t-22-8H173q-13 0-21.5 8T143 30v930q0 14 8.5 22t21.5 8h176q27 0 34-22l232-695 232 695q7 22 34 22h176z"/><glyph glyph-name="uni043D" unicode="н" vert-adv-y="1980" d="M867 990h162q13 0 21.5-8t8.5-22V30q0-14-8.5-22T1029 0H867q-13 0-21.5 8T837 30v368H393V30q0-14-8.5-22T363 0H201q-13 0-21.5 8T171 30v930q0 14 8.5 22t21.5 8h162q13 0 21.5-8t8.5-22V582h444v378q0 14 8.5 22t21.5 8z"/><glyph glyph-name="uni043E" unicode="о" vert-adv-y="1980" d="M615-25q-220 0-363.5 148T108 493t143.5 369.5T615 1010t363.5-147.5T1122 493 978.5 123 615-25zm0 206q128 0 209.5 86.5T906 493t-81.5 225T615 804t-209.5-86T324 493t81.5-225.5T615 181z"/><glyph glyph-name="uni043F" unicode="п" vert-adv-y="1980" d="M1029 990q13 0 21.5-8t8.5-22V30q0-14-8.5-22T1029 0H867q-13 0-21.5 8T837 30v777H393V30q0-14-8.5-22T363 0H201q-13 0-21.5 8T171 30v930q0 14 8.5 22t21.5 8h828z"/><glyph glyph-name="uni0440" unicode="р" vert-adv-y="1980" d="M678 1010q206 0 327.5-145T1127 493t-121.5-372.5T678-25q-114 0-191.5 46T369 144h-24v-494q0-14-8.5-22t-21.5-8H159q-13 0-21.5 8t-8.5 22V960q0 14 8.5 22t21.5 8h162q13 0 21.5-8t8.5-22V848h18q40 73 117.5 117.5T678 1010zm-52-830q131 0 208.5 85T912 493t-77.5 227.5T626 805t-208.5-84.5T340 493q0-142 77.5-227.5T626 180z"/><glyph glyph-name="uni0441" unicode="с" vert-adv-y="1980" d="M651 181q159 0 253 124 19 22 40 7l112-76q26-19 9-41-65-102-174.5-161T644-25q-222 0-368.5 147T129 493t146.5 370.5T644 1010q138 0 247-59t174-161q17-23-10-41l-111-76q-21-15-40 7-94 124-253 124-133 0-219.5-86.5T345 493t86.5-225T651 181z"/><glyph glyph-name="uni0442" unicode="т" vert-adv-y="1980" d="M696 0H534q-14 0-22 8t-8 22v777H124q-14 0-22 8.5T94 837v123q0 14 8 22t22 8h982q14 0 22-8t8-22V837q0-13-8-21.5t-22-8.5H726V30q0-14-8-22t-22-8z"/><glyph glyph-name="uni0443" unicode="у" vert-adv-y="1980" d="M935 990h162q17 0 24-9t0-25L584-356q-9-24-36-24H386q-17 0-24 9t0 25L504-2 109 956q-7 16 0 25t24 9h162q27 0 36-24l284-716 284 716q9 24 36 24z"/><glyph glyph-name="uni0444" unicode="ф" vert-adv-y="1980" d="M1148 491q0-224-111-356.5T719-25v-325q0-14-8.5-22t-21.5-8H541q-13 0-21.5 8t-8.5 22v325Q304 2 193 134.5T82 491t111 356.5T511 1007v324q0 13 8.5 21.5t21.5 8.5h148q13 0 21.5-8.5t8.5-21.5v-324q207-27 318-159.5T1148 491zM719 801V181q118 20 171.5 95.5T944 491t-53.5 214.5T719 801zM286 491q0-139 53.5-214T511 181v620q-118-21-171.5-96T286 491z"/><glyph glyph-name="uni0445" unicode="х" vert-adv-y="1980" d="M743 511l396-475q12-14 6.5-25T1121 0H931q-23 0-36 17L615 357 335 17Q321 0 299 0H109Q90 0 84.5 11T91 36l398 475-370 443q-12 14-6.5 25t24.5 11h188q23 0 36-17l254-310 253 310q14 17 36 17h189q18 0 24-10.5t-6-25.5z"/><glyph glyph-name="uni0446" unicode="ц" vert-adv-y="1980" d="M1059 183h98q13 0 21.5-8.5t8.5-21.5V-96q0-14-8.5-22t-21.5-8h-152q-13 0-21.5 8T975-96V0H201q-13 0-21.5 8T171 30v930q0 14 8.5 22t21.5 8h162q13 0 21.5-8t8.5-22V183h444v777q0 14 8.5 22t21.5 8h162q13 0 21.5-8t8.5-22V183z"/><glyph glyph-name="uni0447" unicode="ч" vert-adv-y="1980" d="M867 990h162q13 0 21.5-8t8.5-22V30q0-14-8.5-22T1029 0H867q-13 0-21.5 8T837 30v290q-55-62-138-99.5T518 183q-75 0-142.5 23.5T250 278t-92.5 132.5T123 606v354q0 14 8.5 22t21.5 8h162q13 0 21.5-8t8.5-22V635q0-122 61.5-191.5T582 374q116 0 185.5 70.5T837 635v325q0 14 8.5 22t21.5 8z"/><glyph glyph-name="uni0448" unicode="ш" vert-adv-y="1980" d="M913 990h148q13 0 21.5-8t8.5-22V30q0-14-8.5-22T1061 0H169q-13 0-21.5 8T139 30v930q0 14 8.5 22t21.5 8h148q13 0 21.5-8t8.5-22V183h172v777q0 14 8.5 22t21.5 8h132q13 0 21.5-8t8.5-22V183h172v777q0 14 8.5 22t21.5 8z"/><glyph glyph-name="uni0449" unicode="щ" vert-adv-y="1980" d="M1091 183h66q13 0 21.5-8.5t8.5-21.5V-96q0-14-8.5-22t-21.5-8h-152q-13 0-21.5 8T975-96V0H169q-13 0-21.5 8T139 30v930q0 14 8.5 22t21.5 8h148q13 0 21.5-8t8.5-22V183h172v777q0 14 8.5 22t21.5 8h132q13 0 21.5-8t8.5-22V183h172v777q0 14 8.5 22t21.5 8h148q13 0 21.5-8t8.5-22V183z"/><glyph glyph-name="uni044A" unicode="ъ" vert-adv-y="1980" d="M477 684h226q207 0 300.5-82t93.5-260-93.5-260T703 0H285q-13 0-21.5 8T255 30v777H119q-13 0-21.5 8.5T89 837v123q0 14 8.5 22t21.5 8h328q13 0 21.5-8t8.5-22V684zm0-512h230q102 0 139 38t37 132-37 132-139 38H477V172z"/><glyph glyph-name="uni044B" unicode="ы" vert-adv-y="1980" d="M461 0H133q-13 0-21.5 8T103 30v930q0 14 8.5 22t21.5 8h148q13 0 21.5-8t8.5-22V684h150q106 0 175.5-19.5t110.5-63T804.5 496 821 342t-16.5-154T747 82.5t-110.5-63T461 0zm636 0H949q-13 0-21.5 8T919 30v930q0 14 8.5 22t21.5 8h148q13 0 21.5-8t8.5-22V30q0-14-8.5-22T1097 0zM311 512V172h154q93 0 124.5 37.5T621 342t-31.5 132.5T465 512H311z"/><glyph glyph-name="uni044C" unicode="ь" vert-adv-y="1980" d="M393 684h310q207 0 300.5-82t93.5-260-93.5-260T703 0H201q-13 0-21.5 8T171 30v930q0 14 8.5 22t21.5 8h162q13 0 21.5-8t8.5-22V684zm0-512h314q102 0 139 38t37 132-37 132-139 38H393V172z"/><glyph glyph-name="uni044D" unicode="э" vert-adv-y="1980" d="M597 1010q222 0 368.5-146.5T1112 493 965.5 122 597-25q-137 0-246.5 59T176 195q-17 22 9 41l112 76q21 15 40-7 94-124 253-124 111 0 192 62.5T887 412H552q-14 0-22 8t-8 22v92q0 14 8 22t22 8h337q-22 109-103.5 174.5T590 804q-159 0-253-124-19-22-40-7l-111 76q-27 18-10 41 65 102 174 161t247 59z"/><glyph glyph-name="uni044E" unicode="ю" vert-adv-y="1980" d="M763 1012q107 0 183-38.5t118.5-111T1126 700t19-207-19-207-61.5-162.5T946 12.5 763-26q-96 0-166.5 31T482 94.5t-67.5 133T384 399h-91V30q0-14-8.5-22T263 0H115q-13 0-21.5 8T85 30v930q0 14 8.5 22t21.5 8h148q13 0 21.5-8t8.5-22V582h91q29 430 379 430zm0-834q54 0 91.5 22.5t58 66 29.5 98 9 128.5-9 128.5-29.5 98-58 66T763 808t-91.5-22.5-58-66-29.5-98-9-128.5 9-128.5 29.5-98 58-66T763 178z"/><glyph glyph-name="uni044F" unicode="я" vert-adv-y="1980" d="M1029 990q13 0 21.5-8t8.5-22V30q0-14-8.5-22T1029 0H867q-13 0-21.5 8T837 30v298H648L378 16Q365 0 342 0H160q-19 0-24 11t8 25l268 300q-137 23-209 105t-72 218q0 160 100 245.5T517 990h512zM539 500h298v318H539q-99 0-146.5-38T345 659t47.5-121T539 500z"/><glyph glyph-name="uni0451" unicode="ё" vert-adv-y="1980" d="M392 1271q-48 0-82 34.5t-34 83.5q0 48 34.5 82t81.5 34q48 0 82.5-34t34.5-82q0-49-34.5-83.5T392 1271zm408 0q-48 0-82 34.5t-34 83.5q0 48 34.5 82t81.5 34q48 0 82.5-34t34.5-82q0-49-34.5-83.5T800 1271zm305-742q0-51-16.5-72.5T1020 435H338q7-132 97-206t240-74q139 0 246 63 22 13 38 8t40-35q27-33 29.5-52.5T1007 96Q950 40 856.5 7.5T652-25q-238 0-382.5 143.5T125 495q0 230 139.5 372.5T630 1010q221 0 348-134.5T1105 529zM630 820q-116-1-190.5-60.5T345 589h563q-12 112-85.5 172.5T630 820z"/><glyph glyph-name="uni0453" unicode="ѓ" vert-adv-y="1980" d="M690 1195H552q-17 0-24 9t0 25l120 252q11 24 34 24h138q17 0 24-9t0-25l-120-252q-11-24-34-24zm359-205q13 0 21.5-8t8.5-22V837q0-13-8.5-21.5T1049 807H393V30q0-14-8.5-22T363 0H201q-13 0-21.5 8T171 30v930q0 14 8.5 22t21.5 8h848z"/><glyph glyph-name="uni0454" unicode="є" vert-adv-y="1980" d="M944 312l112-76q26-19 9-41-65-102-174.5-161T644-25q-222 0-368.5 147T129 493t146.5 370.5T644 1010q138 0 247-59t174-161q17-23-10-41l-111-76q-21-15-40 7-94 124-253 124-114 0-195.5-65.5T352 564h337q13 0 21.5-8t8.5-22v-92q0-14-8.5-22t-21.5-8H354q24-106 105-168.5T651 181q159 0 253 124 19 22 40 7z"/><glyph glyph-name="uni0457" unicode="ї" vert-adv-y="1980" d="M401 1271q-48 0-82 34.5t-34 83.5q0 48 34.5 82t81.5 34q48 0 82.5-34t34.5-82q0-49-34.5-83.5T401 1271zm408 0q-48 0-82 34.5t-34 83.5q0 48 34.5 82t81.5 34q48 0 82.5-34t34.5-82q0-49-34.5-83.5T809 1271zm74-1085h161q14 0 22-8t8-22V30q0-14-8-22t-22-8H801Q661 0 586.5 78.5T512 299v505H191q-13 0-21.5 8t-8.5 22v126q0 14 8.5 22t21.5 8h513q14 0 22-8t8-22V336q0-150 149-150z"/><glyph glyph-name="uni0490" unicode="Ґ" vert-adv-y="1980" d="M905 1502h146q13 0 21.5-8t8.5-22v-308q0-14-8.5-22t-21.5-8H399V30q0-14-8.5-22T369 0H199q-13 0-21.5 8T169 30v1280q0 14 8.5 22t21.5 8h676v132q0 14 8.5 22t21.5 8z"/><glyph glyph-name="uni0491" unicode="ґ" vert-adv-y="1980" d="M887 1104h162q13 0 21.5-8t8.5-22V837q0-13-8.5-21.5T1049 807H393V30q0-14-8.5-22T363 0H201q-13 0-21.5 8T171 30v930q0 14 8.5 22t21.5 8h656v84q0 14 8.5 22t21.5 8z"/><glyph glyph-name="uni1801" unicode="᠁" vert-adv-y="1980" d="M760 522q-46 0-78.5 32T649 633q0 46 32.5 78.5T760 744t78.5-32.5T871 633t-32.5-78.5T760 522zm-581-1q-47 0-79 32.5T68 632t32.5 78.5T179 743t78.5-32.5T290 632t-32-78.5-79-32.5zm290 0q-46 0-78.5 32.5T358 632t32.5 78.5T469 743t78.5-32.5T580 632t-32-78.5-79-32.5zm582 0q-47 0-79 32.5T940 632t32.5 78.5T1051 743t78.5-32.5T1162 632t-32-78.5-79-32.5z"/><glyph glyph-name="Wgrave" unicode="Ẁ" vert-adv-y="1980" d="M506 1569l-120 252q-7 16 0 25t24 9h138q23 0 34-24l120-252q7-16 0-25t-24-9H540q-23 0-34 24zm476-229h155q27 0 24-34L1000 24q-1-11-12.5-17.5T963 0H764q-30 0-35 24L615 752 501 24q-5-24-35-24H267q-13 0-24.5 6.5T230 24L69 1306q-3 34 24 34h155q31 0 34-24L388 297l149 899q4 24 34 24h88q30 0 34-24l149-899 106 1019q3 24 34 24z"/><glyph glyph-name="wgrave" unicode="ẁ" vert-adv-y="1980" d="M505 1219l-120 252q-7 16 0 25t24 9h138q23 0 34-24l120-252q7-16 0-25t-24-9H539q-23 0-34 24zm494-229h138q30 0 24-34L980 24q-5-24-36-24H780q-30 0-36 24L615 667 486 24q-6-24-36-24H286q-32 0-36 24L69 956q-6 34 24 34h138q31 0 36-24l113-711 147 701q5 24 36 24h104q31 0 36-24l147-701 113 711q5 24 36 24z"/><glyph glyph-name="Wacute" unicode="Ẃ" vert-adv-y="1980" d="M690 1545H552q-17 0-24 9t0 25l120 252q11 24 34 24h138q17 0 24-9t0-25l-120-252q-11-24-34-24zm292-205h155q27 0 24-34L1000 24q-1-11-12.5-17.5T963 0H764q-30 0-35 24L615 752 501 24q-5-24-35-24H267q-13 0-24.5 6.5T230 24L69 1306q-3 34 24 34h155q31 0 34-24L388 297l149 899q4 24 34 24h88q30 0 34-24l149-899 106 1019q3 24 34 24z"/><glyph glyph-name="wacute" unicode="ẃ" vert-adv-y="1980" d="M689 1195H551q-17 0-24 9t0 25l120 252q11 24 34 24h138q17 0 24-9t0-25l-120-252q-11-24-34-24zm310-205h138q30 0 24-34L980 24q-5-24-36-24H780q-30 0-36 24L615 667 486 24q-6-24-36-24H286q-32 0-36 24L69 956q-6 34 24 34h138q31 0 36-24l113-711 147 701q5 24 36 24h104q31 0 36-24l147-701 113 711q5 24 36 24z"/><glyph glyph-name="Wdieresis" unicode="Ẅ" vert-adv-y="1980" d="M411 1621q-48 0-82 34.5t-34 83.5q0 48 34.5 82t81.5 34q48 0 82.5-34t34.5-82q0-49-34.5-83.5T411 1621zm408 0q-48 0-82 34.5t-34 83.5q0 48 34.5 82t81.5 34q48 0 82.5-34t34.5-82q0-49-34.5-83.5T819 1621zm163-281h155q27 0 24-34L1000 24q-1-11-12.5-17.5T963 0H764q-30 0-35 24L615 752 501 24q-5-24-35-24H267q-13 0-24.5 6.5T230 24L69 1306q-3 34 24 34h155q31 0 34-24L388 297l149 899q4 24 34 24h88q30 0 34-24l149-899 106 1019q3 24 34 24z"/><glyph glyph-name="wdieresis" unicode="ẅ" vert-adv-y="1980" d="M410 1271q-48 0-82 34.5t-34 83.5q0 48 34.5 82t81.5 34q48 0 82.5-34t34.5-82q0-49-34.5-83.5T410 1271zm408 0q-48 0-82 34.5t-34 83.5q0 48 34.5 82t81.5 34q48 0 82.5-34t34.5-82q0-49-34.5-83.5T818 1271zm181-281h138q30 0 24-34L980 24q-5-24-36-24H780q-30 0-36 24L615 667 486 24q-6-24-36-24H286q-32 0-36 24L69 956q-6 34 24 34h138q31 0 36-24l113-711 147 701q5 24 36 24h104q31 0 36-24l147-701 113 711q5 24 36 24z"/><glyph glyph-name="uni1E9E" unicode="ẞ" vert-adv-y="1980" d="M1094 1304L736 822q213-29 329-141.5T1181 377q0-187-109-295T761-26q-187 0-280.5 93T387 331q0 31 29 31h134q28 0 30-29 5-72 51.5-114T762 177q94 0 142.5 54.5T953 383q0 141-102 204t-309 63q-30 0-30 30v151l238 303H495q-107 0-147.5-47T307 931V30q0-14-8.5-22T277 0H107Q94 0 85.5 8T77 30v917q0 209 92 301t310 92h596q19 0 24.5-10.5t-5.5-25.5z"/><glyph glyph-name="Ygrave" unicode="Ỳ" vert-adv-y="1980" d="M506 1569l-120 252q-7 16 0 25t24 9h138q23 0 34-24l120-252q7-16 0-25t-24-9H540q-23 0-34 24zm450-229h180q18 0 23.5-10t-3.5-26L730 518V30q0-14-8-22t-22-8H530q-14 0-22 8t-8 22v490L74 1304q-9 16-3.5 26t23.5 10h180q26 0 36-20l305-582 305 582q10 20 36 20z"/><glyph glyph-name="ygrave" unicode="ỳ" vert-adv-y="1980" d="M678 1195H540q-23 0-34 24l-120 252q-7 16 0 25t24 9h138q23 0 34-24l120-252q7-16 0-25t-24-9zm257-205h162q17 0 24-9t0-25L584-356q-9-24-36-24H386q-17 0-24 9t0 25L504-2 109 956q-7 16 0 25t24 9h162q27 0 36-24l284-716 284 716q9 24 36 24z"/><glyph glyph-name="endash" unicode="–" vert-adv-y="1980" d="M145 750h940q13 0 21.5-8t8.5-22V596q0-14-8.5-22t-21.5-8H145q-13 0-21.5 8t-8.5 22v124q0 14 8.5 22t21.5 8z"/><glyph glyph-name="emdash" unicode="—" vert-adv-y="1980" d="M145 750h940q13 0 21.5-8t8.5-22V596q0-14-8.5-22t-21.5-8H145q-13 0-21.5 8t-8.5 22v124q0 14 8.5 22t21.5 8z"/><glyph glyph-name="uni2016" unicode="‖" vert-adv-y="1980" d="M290-350v1920q0 14 8 22t22 8h170q14 0 22-8t8-22V-350q0-14-8-22t-22-8H320q-14 0-22 8t-8 22zm420 0v1920q0 14 8 22t22 8h170q14 0 22-8t8-22V-350q0-14-8-22t-22-8H740q-14 0-22 8t-8 22z"/><glyph glyph-name="underscoredbl" unicode="‗" vert-adv-y="1980" d="M145 0h940q13 0 21.5-8t8.5-22v-124q0-14-8.5-22t-21.5-8H145q-13 0-21.5 8t-8.5 22v124q0 14 8.5 22T145 0zm0-366h940q13 0 21.5-8t8.5-22v-124q0-14-8.5-22t-21.5-8H145q-13 0-21.5 8t-8.5 22v124q0 14 8.5 22t21.5 8z"/><glyph glyph-name="quoteleft" unicode="‘" vert-adv-y="1980" d="M833 819H407q-13 0-21.5 8.5T377 849v74q0 279 34 454 4 23 34 23h121q31 0 29-32-15-206-13-358h251q13 0 21.5-8t8.5-22V849q0-13-8.5-21.5T833 819z"/><glyph glyph-name="quoteright" unicode="’" vert-adv-y="1980" d="M397 1400h426q13 0 21.5-8t8.5-22v-73q0-280-34-455-4-23-34-23H664q-31 0-29 32 15 208 13 358H397q-13 0-21.5 8.5T367 1239v131q0 14 8.5 22t21.5 8z"/><glyph glyph-name="quotesinglbase" unicode="‚" vert-adv-y="1980" d="M397 191h426q13 0 21.5-8.5T853 161V87q0-279-34-454-4-23-34-23H664q-31 0-29 32 15 206 13 358H397q-13 0-21.5 8T367 30v131q0 13 8.5 21.5T397 191z"/><glyph glyph-name="quotedblleft" unicode="“" vert-adv-y="1980" d="M164 1400h121q31 0 29-32-15-205-13-348h199q14 0 22-8t8-22V859q0-13-8-21.5t-22-8.5H126q-14 0-22 8.5T96 859v74q0 269 34 444 4 23 34 23zm604 0h121q31 0 29-32-15-205-13-348h199q14 0 22-8t8-22V859q0-13-8-21.5t-22-8.5H730q-14 0-22 8.5t-8 21.5v74q0 269 34 444 4 23 34 23z"/><glyph glyph-name="quotedblright" unicode="”" vert-adv-y="1980" d="M462 829H341q-31 0-29 32 15 206 13 348H126q-14 0-22 8.5t-8 21.5v131q0 14 8 22t22 8h374q14 0 22-8t8-22v-73q0-270-34-445-4-23-34-23zm604 0H945q-31 0-29 32 15 206 13 348H730q-14 0-22 8.5t-8 21.5v131q0 14 8 22t22 8h374q14 0 22-8t8-22v-73q0-270-34-445-4-23-34-23z"/><glyph glyph-name="quotedblbase" unicode="„" vert-adv-y="1980" d="M462-380H341q-31 0-29 32 15 205 13 348H126q-14 0-22 8t-8 22v131q0 13 8 21.5t22 8.5h374q14 0 22-8.5t8-21.5V87q0-269-34-444-4-23-34-23zm604 0H945q-31 0-29 32 15 205 13 348H730q-14 0-22 8t-8 22v131q0 13 8 21.5t22 8.5h374q14 0 22-8.5t8-21.5V87q0-269-34-444-4-23-34-23z"/><glyph glyph-name="dagger" unicode="†" vert-adv-y="1980" d="M615 1266q-60 0-102 42t-42 103q0 60 42 102t102 42q61 0 103-42t42-102q0-61-42-103t-103-42zM307 966q-60 0-102.5 42T162 1111q0 60 42.5 102.5T307 1256t102.5-42.5T452 1111q0-61-42.5-103T307 966zm616 0q-60 0-102.5 42T778 1111q0 60 42.5 102.5T923 1256t102.5-42.5T1068 1111q0-61-42.5-103T923 966zM619-20h-8q-14 0-17 20L463 860l152 185 152-185L636 0q-3-20-17-20z"/><glyph glyph-name="daggerdbl" unicode="‡" vert-adv-y="1980" d="M615 1266q-60 0-102 42t-42 103q0 60 42 102t102 42q61 0 103-42t42-102q0-61-42-103t-103-42zM307 966q-60 0-102.5 42T162 1111q0 60 42.5 102.5T307 1256t102.5-42.5T452 1111q0-61-42.5-103T307 966zm616 0q-60 0-102.5 42T778 1111q0 60 42.5 102.5T923 1256t102.5-42.5T1068 1111q0-61-42.5-103T923 966zM767 860L615 675 463 860l152 185zM307 464q-60 0-102.5 42.5T162 609q0 61 42.5 103T307 754t102.5-42T452 609q0-60-42.5-102.5T307 464zm616 0q-60 0-102.5 42.5T778 609q0 61 42.5 103T923 754t102.5-42 42.5-103q0-60-42.5-102.5T923 464zM615 165q-60 0-102 42t-42 102q0 61 42 103t102 42q61 0 103-42t42-103q0-60-42-102t-103-42z"/><glyph glyph-name="bullet" unicode="•" vert-adv-y="1980" d="M616 367q-112 0-192 79.5T344 639q0 112 79.5 191.5T616 910q112 0 191.5-79.5T887 639t-79.5-192T616 367z"/><glyph glyph-name="ellipsis" unicode="…" vert-adv-y="1980" d="M208-28q-66 0-112 46T50 130q0 65 46 111t112 46q65 0 111-46t46-111q0-66-46-112T208-28zm407 0q-66 0-112 46t-46 112q0 65 46 111t112 46q65 0 111-46t46-111q0-66-46-112T615-28zm407 0q-65 0-111 46t-46 112q0 65 46 111t111 46q66 0 112-46t46-111q0-66-46-112t-112-46z"/><glyph glyph-name="perthousand" unicode="‰" vert-adv-y="1980" d="M314 1484q205 0 205-276 0-278-205-278-203 0-203 278 0 276 203 276zm0-152q-38 0-51.5-29t-13.5-95q0-67 13.5-96.5T314 1082q39 0 53 29.5t14 96.5q0 66-14 95t-53 29zm471-107l72-59q22-18 6-42L229 183q-16-24-38-6l-72 59q-22 19-6 42l634 941q16 25 38 6zm135-758q205 0 205-276 0-278-205-278-86 0-135 54-49-54-135-54-204 0-204 278 0 276 204 276 85 0 135-52 50 52 135 52zM650 65q39 0 53 29.5t14 96.5q0 66-14 95t-53 29q-38 0-51.5-29T585 191q0-67 13.5-96.5T650 65zm270 0q39 0 53 29.5t14 96.5q0 66-14 95t-53 29q-38 0-51.5-29T855 191q0-67 13.5-96.5T920 65z"/><glyph glyph-name="minute" unicode="′" vert-adv-y="1980" d="M622 786H491q-14 0-22 8.5t-5 21.5l113 494q7 30 31 30h130q14 0 22-8.5t5-21.5L652 816q-7-30-30-30z"/><glyph glyph-name="second" unicode="″" vert-adv-y="1980" d="M458 786H327q-14 0-21.5 8.5T301 816l113 494q7 30 31 30h130q14 0 22-8.5t5-21.5L488 816q-7-30-30-30zm328 0H655q-14 0-22 8.5t-5 21.5l113 494q7 30 31 30h130q14 0 22-8.5t5-21.5L816 816q-7-30-30-30z"/><glyph glyph-name="uni2034" unicode="‴" vert-adv-y="1980" d="M298 786H167q-14 0-22 8.5t-5 21.5l113 494q7 30 31 30h130q14 0 22-8.5t5-21.5L328 816q-7-30-30-30zm324 0H491q-14 0-22 8.5t-5 21.5l113 494q7 30 31 30h130q14 0 22-8.5t5-21.5L652 816q-7-30-30-30zm323 0H814q-14 0-21.5 8.5T788 816l113 494q7 30 31 30h130q14 0 22-8.5t5-21.5L975 816q-7-30-30-30z"/><glyph glyph-name="guilsinglleft" unicode="‹" vert-adv-y="1980" d="M855 944L599 562l256-382q10-16 4-26t-24-10H665q-25 0-36 20L375 542q-14 20 0 40l254 378q11 20 36 20h170q18 0 24-10t-4-26z"/><glyph glyph-name="guilsinglright" unicode="›" vert-adv-y="1980" d="M631 562L375 944q-10 16-4 26t24 10h170q25 0 36-20l254-378q14-20 0-40L601 164q-11-20-36-20H395q-18 0-24 10t4 26z"/><glyph glyph-name="uni203B" unicode="※" vert-adv-y="1980" d="M616 980q-46 0-78 32t-32 78q0 45 32 77t78 32q45 0 76.5-32t31.5-77q0-46-31.5-78T616 980zm429-11L737 661l308-309q21-21 0-42l-79-79q-21-21-42 0L616 540 307 231q-21-21-43 0l-78 79q-21 21 0 42l309 309-309 308q-21 21 0 42l78 79q22 22 43 0l309-308 308 308q21 21 42 0l79-79q21-21 0-42zM296 660q0-45-32.5-77T186 551t-77 32-32 77q0 46 32 78t77 32 77.5-32 32.5-78zm749 110q45 0 77-32t32-78q0-45-32.5-77t-76.5-32q-46 0-78 32t-32 77q0 46 32 78t78 32zM616 341q45 0 76.5-32.5T724 231t-31.5-77-76.5-32q-46 0-78 32t-32 77 32 77.5 78 32.5z"/><glyph glyph-name="exclamdbl" unicode="‼" vert-adv-y="1980" d="M433 510h-98q-32 0-34 31l-61 656q-7 73 34.5 118.5T383 1361t109-45.5 35-118.5l-60-656q-2-31-34-31zm462 0h-97q-32 0-35 31l-61 656q-7 73 35 118.5t109 45.5 109-45.5 35-118.5l-60-656q-3-31-35-31zM384-26q-75 0-127 52t-52 127q0 74 52 126.5T384 332q74 0 126-52.5T562 153q0-75-52-127T384-26zm462 0q-74 0-126 52t-52 127q0 74 52 126.5T846 332q75 0 127-52.5t52-126.5q0-75-52-127T846-26z"/></font>
</defs>
</svg>
