<svg xmlns="http://www.w3.org/2000/svg"><defs><font id="CartographCF-Bold" horiz-adv-x="1230" vert-adv-y="2000"><font-face font-family="Cartograph CF Bold" font-weight="400" units-per-em="2000" panose-1="0 0 8 9 0 0 0 0 0 0" ascent="1600" descent="-400" x-height="990" cap-height="1342" bbox="-853 -725 4770 2000" underline-thickness="50" underline-position="-200" unicode-range="U+0020-FFFD"/><glyph glyph-name="w_w_w.liga" unicode="www" horiz-adv-x="3690" vert-adv-y="1980" d="M3405 990h159q32 0 24-34L3364 24q-6-24-36-24h-195q-30 0-36 24l-145 618-146-618q-6-24-36-24h-194q-32 0-36 24l-141 673-142-673q-5-24-36-24h-195q-30 0-36 24l-145 618-145-618q-6-24-36-24h-195q-31 0-36 24l-141 673-142-673q-4-24-36-24H920q-30 0-36 24L738 642 593 24q-6-24-36-24H362q-30 0-36 24L102 956q-8 34 24 34h159q30 0 36-24l157-674 156 674q6 24 36 24h137q30 0 36-24l155-674 158 674q6 24 36 24h200q30 0 36-24l157-674 155 674q6 24 36 24h138q30 0 36-24l155-674 157 674q6 24 36 24h201q30 0 36-24l157-674 155 674q6 24 36 24h137q30 0 36-24l156-674 157 674q6 24 36 24z"/><glyph glyph-name="hyphen_hyphen_greater.liga" unicode="--&gt;" horiz-adv-x="3690" vert-adv-y="1980" d="M2846 1091l129 131 565-565-565-565-129 130 352 341H150v187h3049z"/><glyph glyph-name="hyphen_greater.liga" unicode="-&gt;" horiz-adv-x="2460" vert-adv-y="1980" d="M1616 1091l129 131 565-565-565-565-129 130 352 341H150v187h1819z"/><glyph glyph-name="hyphen_greater_greater.liga" unicode="-&gt;&gt;" horiz-adv-x="3690" vert-adv-y="1980" d="M2206 1091l129 131 565-565-565-565-129 130 352 341H150v187h2409zm640 0l129 131 565-565-565-565-129 130 449 435z"/><glyph glyph-name="endash_endash_greater.liga" unicode="––&gt;" horiz-adv-x="3690" vert-adv-y="1980" d="M2846 1091l129 131 565-565-565-565-129 130 352 341H150v187h3049z"/><glyph glyph-name="endash_greater.liga" unicode="–&gt;" horiz-adv-x="2460" vert-adv-y="1980" d="M1616 1091l129 131 565-565-565-565-129 130 352 341H150v187h1819z"/><glyph glyph-name="endash_greater_greater.liga" unicode="–&gt;&gt;" horiz-adv-x="3690" vert-adv-y="1980" d="M2206 1091l129 131 565-565-565-565-129 130 352 341H150v187h2409zm640 0l129 131 565-565-565-565-129 130 449 435z"/><glyph glyph-name="period_hyphen.liga" unicode=".-" horiz-adv-x="2460" vert-adv-y="1980" d="M642 439q-90 0-153.5 63T425 656q0 90 63.5 153T642 872q89 0 152.5-63T858 656t-63-153.5T642 439zm624 321h940q14 0 22-8t8-22V583q0-13-8-21.5t-22-8.5h-940q-14 0-22 8.5t-8 21.5v147q0 14 8 22t22 8z"/><glyph glyph-name="period_endash.liga" unicode=".–" horiz-adv-x="2460" vert-adv-y="1980" d="M642 439q-90 0-153.5 63T425 656q0 90 63.5 153T642 872q89 0 152.5-63T858 656t-63-153.5T642 439zm624 321h940q14 0 22-8t8-22V583q0-13-8-21.5t-22-8.5h-940q-14 0-22 8.5t-8 21.5v147q0 14 8 22t22 8z"/><glyph glyph-name="period_equal.liga" unicode=".=" horiz-adv-x="2460" vert-adv-y="1980" d="M2206 788h-928q-14 0-22 8t-8 22v129q0 13 8 21.5t22 8.5h928q14 0 22-8.5t8-21.5V818q0-14-8-22t-22-8zM642 439q-90 0-153.5 63T425 656q0 90 63.5 153T642 872q89 0 152.5-63T858 656t-63-153.5T642 439zm1564-104h-928q-14 0-22 8.5t-8 21.5v129q0 14 8 22t22 8h928q14 0 22-8t8-22V365q0-13-8-21.5t-22-8.5z"/><glyph glyph-name="colon_colon.liga" unicode="::" horiz-adv-x="2460" vert-adv-y="1980" d="M791 620q-81 0-138.5 57T595 816t57.5 139.5T791 1013q82 0 139.5-57.5T988 816t-57.5-139T791 620zm878 0q-82 0-139.5 57T1472 816t57.5 139.5T1669 1013q81 0 139-57.5t58-139.5q0-81-58-138.5T1669 620zM791-26q-81 0-138.5 57.5T595 171t57.5 139T791 367q82 0 139.5-57T988 171 930.5 31.5 791-26zm878 0q-82 0-139.5 57.5T1472 171t57.5 139 139.5 57q81 0 139-57.5t58-138.5q0-82-58-139.5T1669-26z"/><glyph glyph-name="colon_colon_colon.liga" unicode=":::" horiz-adv-x="3690" vert-adv-y="1980" d="M821 620q-81 0-138.5 57T625 816t57.5 139.5T821 1013q82 0 139.5-57.5T1018 816t-57.5-139T821 620zm1024 0q-81 0-139 57.5T1648 816q0 82 58 139.5t139 57.5 139-57.5 58-139.5q0-81-58-138.5T1845 620zm1024 0q-82 0-139.5 57T2672 816t57.5 139.5T2869 1013q81 0 139-57.5t58-139.5q0-81-58-138.5T2869 620zM821-26q-81 0-138.5 57.5T625 171t57.5 139T821 367q82 0 139.5-57t57.5-139-57.5-139.5T821-26zm1024 0q-81 0-139 57.5T1648 171q0 81 58 138.5t139 57.5 139-57.5 58-138.5q0-82-58-139.5T1845-26zm1024 0q-82 0-139.5 57.5T2672 171t57.5 139 139.5 57q81 0 139-57.5t58-138.5q0-82-58-139.5T2869-26z"/><glyph glyph-name="semicolon_semicolon.liga" unicode=";;" horiz-adv-x="2460" vert-adv-y="1980" d="M794 620q-82 0-139.5 57T597 816t57.5 139.5T794 1013q81 0 138.5-57.5T990 816t-57.5-139T794 620zm873 0q-82 0-139.5 57T1470 816t57.5 139.5T1667 1013q81 0 138.5-57.5T1863 816t-57.5-139-138.5-57zM570 212h454q14 0 22-8t8-22V95q0-294-39-463-5-22-36-22H840q-31 0-29 32 18 185 15 358H570q-14 0-22 8t-8 22v152q0 14 8 22t22 8zm873 0h454q13 0 21.5-8t8.5-22V95q0-294-39-463-6-22-36-22h-139q-31 0-29 32 18 185 15 358h-256q-13 0-21.5 8t-8.5 22v152q0 14 8.5 22t21.5 8z"/><glyph glyph-name="exclam_equal.liga" unicode="!=" horiz-adv-x="2460" vert-adv-y="1980" d="M2309 788h-906l-111-264h1017q13 0 21.5-8t8.5-22V365q0-13-8.5-21.5T2309 335H1212l-201-475q-11-24-36-24H783q-17 0-24 9t0 25l197 465H151q-13 0-21.5 8.5T121 365v129q0 14 8.5 22t21.5 8h885l112 264H151q-13 0-21.5 8t-8.5 22v129q0 13 8.5 21.5T151 977h1077l222 525q10 24 35 24h192q17 0 23.5-9.5t.5-24.5l-218-515h826q13 0 21.5-8.5t8.5-21.5V818q0-14-8.5-22t-21.5-8z"/><glyph glyph-name="exclam_equal_equal.liga" unicode="!==" horiz-adv-x="3690" vert-adv-y="1980" d="M3539 1007H2116l-103-245h1526q13 0 21.5-8t8.5-22V603q0-13-8.5-21.5T3539 573H1933l-104-246h1710q13 0 21.5-8.5t8.5-21.5V168q0-14-8.5-22t-21.5-8H1749l-123-291q-10-24-36-24h-192q-17 0-24 9t0 25l119 281H151q-13 0-21.5 8t-8.5 22v129q0 13 8.5 21.5T151 327h1422l104 246H151q-13 0-21.5 8.5T121 603v129q0 14 8.5 22t21.5 8h1606l104 245H151q-13 0-21.5 8.5T121 1037v129q0 14 8.5 22t21.5 8h1790l124 294q10 23 35 23h192q17 0 23.5-9.5t.5-24.5l-120-283h1343q13 0 21.5-8t8.5-22v-129q0-13-8.5-21.5t-21.5-8.5z"/><glyph glyph-name="asterisk_slash.liga" unicode="*/" horiz-adv-x="2460" vert-adv-y="1980" d="M1295 1129l40-155q10-43-34-54l-280-71 187-240q30-38-9-64l-138-92q-36-25-61 12L833 712 666 465q-24-38-60-12l-138 92q-40 26-10 64l188 240-281 71q-43 11-33 54l39 155q5 21 20.5 30t36.5 3l287-85-9 308q0 20 13 32.5t33 12.5h157q20 0 32.5-12.5T954 1385l-3-308 287 85q21 6 37-3t20-30zm245-1389h-192q-17 0-24 9t0 25l691 1632q11 24 35 24h192q17 0 23.5-9.5t.5-24.5L1576-236q-10-24-36-24z"/><glyph glyph-name="slash_asterisk.liga" unicode="/*" horiz-adv-x="2460" vert-adv-y="1980" d="M350-260H158q-17 0-24 9t0 25l691 1632q11 24 35 24h192q17 0 23.5-9.5t.5-24.5L386-236q-10-24-36-24zm1909 1389l40-155q10-43-34-54l-281-71 188-240q30-38-10-64l-138-92q-36-26-60 12l-167 247-167-247q-25-37-61-12l-138 92q-38 27-9 64l187 240-280 71q-44 11-34 54l40 155q4 21 20 30t37 3l287-85-9 308q0 19 13 32t32 13h158q20 0 32.5-12.5t12.5-32.5l-3-308 287 85q21 6 36.5-3t20.5-30z"/><glyph glyph-name="slash_greater.liga" unicode="/&gt;" horiz-adv-x="2460" vert-adv-y="1980" d="M1146 1230l1021-607q22-13 22-35V448q0-22-22-35L1458-14q-25-16-40 10l-78 131q-7 11-4 23t15 19l598 349-883 523L525-236q-11-24-35-24H298q-17 0-23.5 9.5T274-226l691 1632q11 24 36 24h191q17 0 24-9t0-25z"/><glyph glyph-name="slash_slash.liga" unicode="//" horiz-adv-x="2460" vert-adv-y="1980" d="M477-260H285q-17 0-24 9t0 25l691 1632q10 24 35 24h192q17 0 23.5-9.5t.5-24.5L513-236q-11-24-36-24zm996 0h-192q-17 0-24 9t0 25l691 1632q10 24 35 24h192q17 0 23.5-9.5t.5-24.5L1509-236q-11-24-36-24z"/><glyph glyph-name="underscore_underscore.liga" unicode="__" horiz-adv-x="2460" vert-adv-y="1980" d="M2460-207H0V0h2460v-207z"/><glyph glyph-name="equal_equal.liga" unicode="==" horiz-adv-x="2460" vert-adv-y="1980" d="M2309 788H151q-13 0-21.5 8t-8.5 22v129q0 13 8.5 21.5T151 977h2158q13 0 21.5-8.5t8.5-21.5V818q0-14-8.5-22t-21.5-8zm0-453H151q-13 0-21.5 8.5T121 365v129q0 14 8.5 22t21.5 8h2158q13 0 21.5-8t8.5-22V365q0-13-8.5-21.5T2309 335z"/><glyph glyph-name="equal_equal_equal.liga" unicode="===" horiz-adv-x="3690" vert-adv-y="1980" d="M3539 1007H151q-13 0-21.5 8.5T121 1037v129q0 14 8.5 22t21.5 8h3388q13 0 21.5-8t8.5-22v-129q0-13-8.5-21.5t-21.5-8.5zm0-434H151q-13 0-21.5 8.5T121 603v129q0 14 8.5 22t21.5 8h3388q13 0 21.5-8t8.5-22V603q0-13-8.5-21.5T3539 573zm0-435H151q-13 0-21.5 8t-8.5 22v129q0 13 8.5 21.5T151 327h3388q13 0 21.5-8.5t8.5-21.5V168q0-14-8.5-22t-21.5-8z"/><glyph glyph-name="equal_equal_greater.liga" unicode="==&gt;" horiz-adv-x="3690" vert-adv-y="1980" d="M2846 1091l129 131 565-565-565-565-129 130 117 113H151q-13 0-21.5 8.5T121 365v129q0 14 8.5 22t21.5 8h3007l137 133-136 131H151q-13 0-21.5 8t-8.5 22v129q0 13 8.5 21.5T151 977h2813z"/><glyph glyph-name="equal_greater.liga" unicode="=&gt;" horiz-adv-x="2460" vert-adv-y="1980" d="M1616 1091l129 131 565-565-565-565-129 130 117 113H151q-13 0-21.5 8.5T121 365v129q0 14 8.5 22t21.5 8h1777l137 133-136 131H151q-13 0-21.5 8t-8.5 22v129q0 13 8.5 21.5T151 977h1583z"/><glyph glyph-name="equal_greater_greater.liga" unicode="=&gt;&gt;" horiz-adv-x="3690" vert-adv-y="1980" d="M2206 1091l129 131 565-565-565-565-129 130 117 113H151q-13 0-21.5 8.5T121 365v129q0 14 8.5 22t21.5 8h2367l137 133-136 131H151q-13 0-21.5 8t-8.5 22v129q0 13 8.5 21.5T151 977h2173zm640 0l129 131 565-565-565-565-129 130 449 435z"/><glyph glyph-name="equal_slash_equal.liga" unicode="=/=" horiz-adv-x="3690" vert-adv-y="1980" d="M3539 1007H2116l-103-245h1526q13 0 21.5-8t8.5-22V603q0-13-8.5-21.5T3539 573H1933l-104-246h1710q13 0 21.5-8.5t8.5-21.5V168q0-14-8.5-22t-21.5-8H1749l-123-291q-10-24-36-24h-192q-17 0-24 9t0 25l119 281H151q-13 0-21.5 8t-8.5 22v129q0 13 8.5 21.5T151 327h1422l104 246H151q-13 0-21.5 8.5T121 603v129q0 14 8.5 22t21.5 8h1606l104 245H151q-13 0-21.5 8.5T121 1037v129q0 14 8.5 22t21.5 8h1790l124 294q10 23 35 23h192q17 0 23.5-9.5t.5-24.5l-120-283h1343q13 0 21.5-8t8.5-22v-129q0-13-8.5-21.5t-21.5-8.5z"/><glyph glyph-name="greater_hyphen_greater.liga" unicode="&gt;-&gt;" horiz-adv-x="3690" vert-adv-y="1980" d="M2846 1091l129 131 565-565-565-565-129 130 352 341H750L279 92 150 222l449 435-449 434 129 131 472-472h2448z"/><glyph glyph-name="greater_endash_greater.liga" unicode="&gt;–&gt;" horiz-adv-x="3690" vert-adv-y="1980" d="M2846 1091l129 131 565-565-565-565-129 130 352 341H750L279 92 150 222l449 435-449 434 129 131 472-472h2448z"/><glyph glyph-name="greater_equal.liga" unicode="&gt;=" vert-adv-y="1980" d="M1020 798L311 372q-25-16-40 9l-78 131q-15 26 11 41l599 350-599 349q-12 7-15 19t4 23l78 131q15 26 40 10l709-427q22-13 22-35V833q0-22-22-35zm4-464L311-90q-25-16-40 9L193 50q-15 26 11 41l713 424q26 16 41-9l77-131q15-26-11-41z"/><glyph glyph-name="greater_equal_greater.liga" unicode="&gt;=&gt;" horiz-adv-x="3690" vert-adv-y="1980" d="M2846 1091l129 131 565-565-565-565-129 130 117 113H522L279 92 150 222l449 435-449 434 129 131 245-245h2440zM844 657L711 524h2447l137 133-136 131H713z"/><glyph glyph-name="less_hyphen.liga" unicode="&lt;-" horiz-adv-x="2460" vert-adv-y="1980" d="M491 750h1819V563H492l352-341L715 92 150 657l565 565 129-131z"/><glyph glyph-name="less_hyphen_hyphen.liga" unicode="&lt;--" horiz-adv-x="3690" vert-adv-y="1980" d="M491 750h3049V563H492l352-341L715 92 150 657l565 565 129-131z"/><glyph glyph-name="less_hyphen_greater.liga" unicode="&lt;-&gt;" horiz-adv-x="3690" vert-adv-y="1980" d="M2846 1091l129 131 565-565-565-565-129 130 352 341H492l352-341L715 92 150 657l565 565 129-131-353-341h2708z"/><glyph glyph-name="less_hyphen_less.liga" unicode="&lt;-&lt;" horiz-adv-x="3690" vert-adv-y="1980" d="M3411 1222l129-131-449-434 449-435-129-130-471 471H492l352-341L715 92 150 657l565 565 129-131-353-341h2448z"/><glyph glyph-name="less_endash.liga" unicode="&lt;–" horiz-adv-x="2460" vert-adv-y="1980" d="M491 750h1819V563H492l352-341L715 92 150 657l565 565 129-131z"/><glyph glyph-name="less_endash_endash.liga" unicode="&lt;––" horiz-adv-x="3690" vert-adv-y="1980" d="M491 750h3049V563H492l352-341L715 92 150 657l565 565 129-131z"/><glyph glyph-name="less_endash_greater.liga" unicode="&lt;–&gt;" horiz-adv-x="3690" vert-adv-y="1980" d="M2846 1091l129 131 565-565-565-565-129 130 352 341H492l352-341L715 92 150 657l565 565 129-131-353-341h2708z"/><glyph glyph-name="less_endash_less.liga" unicode="&lt;–&lt;" horiz-adv-x="3690" vert-adv-y="1980" d="M3411 1222l129-131-449-434 449-435-129-130-471 471H492l352-341L715 92 150 657l565 565 129-131-353-341h2448z"/><glyph glyph-name="less_exclam_hyphen_hyphen.liga" unicode="&lt;!--" horiz-adv-x="4920" vert-adv-y="1980" d="M1604 550l-67 626q-9 83 38 134t120 51q74 0 121-51t38-134l-65-626q-1-14-11.5-22.5T1753 519h-114q-32 0-35 31zm-889 672l129-131-353-341h782V563H492l352-341L715 92 150 657zm1402-659v187h2653V563H2117zm-421-214q77 0 132-55t55-133q0-77-55-132t-132-55-132 55-55 132q0 78 55 133t132 55z"/><glyph glyph-name="less_exclam_endash_endash.liga" unicode="&lt;!––" horiz-adv-x="4920" vert-adv-y="1980" d="M1604 550l-67 626q-9 83 38 134t120 51q74 0 121-51t38-134l-65-626q-1-14-11.5-22.5T1753 519h-114q-32 0-35 31zm-889 672l129-131-353-341h782V563H492l352-341L715 92 150 657zm1402-659v187h2653V563H2117zm-421-214q77 0 132-55t55-133q0-77-55-132t-132-55-132 55-55 132q0 78 55 133t132 55z"/><glyph glyph-name="less_equal.liga" unicode="&lt;=" vert-adv-y="1980" d="M919 372L210 798q-22 13-22 35v140q0 22 22 35l709 427q25 16 40-10l78-131q7-11 4-23t-15-19L428 903l598-350q26-15 11-41l-78-131q-15-25-40-9zm0-462L206 334q-26 15-11 41l77 131q15 25 41 9l713-424q26-15 11-41L959-81q-15-25-40-9z"/><glyph glyph-name="less_equal_equal.liga" unicode="&lt;==" horiz-adv-x="3690" vert-adv-y="1980" d="M3539 788H531L395 657l137-133h3007q13 0 21.5-8t8.5-22V365q0-13-8.5-21.5T3539 335H727l117-113L715 92 150 657l565 565 129-131-118-114h2813q13 0 21.5-8.5t8.5-21.5V818q0-14-8.5-22t-21.5-8z"/><glyph glyph-name="less_equal_equal_greater.liga" unicode="&lt;==&gt;" horiz-adv-x="4920" vert-adv-y="1980" d="M4076 1091l129 131 565-565-565-565-129 130 117 113H727l117-113L715 92 150 657l565 565 129-131-118-114h3468zM395 657l137-133h3856l137 133-136 131H531z"/><glyph glyph-name="less_equal_greater.liga" unicode="&lt;=&gt;" horiz-adv-x="3690" vert-adv-y="1980" d="M2846 1091l129 131 565-565-565-565-129 130 117 113H727l117-113L715 92 150 657l565 565 129-131-118-114h2238zM395 657l137-133h2626l137 133-136 131H531z"/><glyph glyph-name="less_equal_less.liga" unicode="&lt;=&lt;" horiz-adv-x="3690" vert-adv-y="1980" d="M3411 1222l129-131-449-434 449-435-129-130-243 243H727l117-113L715 92 150 657l565 565 129-131-118-114h2440zM395 657l137-133h2447l-133 133 131 131H531z"/><glyph glyph-name="less_less_hyphen.liga" unicode="&lt;&lt;-" horiz-adv-x="3690" vert-adv-y="1980" d="M715 1222l129-131-449-434 449-435L715 92 150 657zm416-472h2409V563H1132l352-341-129-130-565 565 565 565 129-131z"/><glyph glyph-name="less_less_endash.liga" unicode="&lt;&lt;–" horiz-adv-x="3690" vert-adv-y="1980" d="M715 1222l129-131-449-434 449-435L715 92 150 657zm416-472h2409V563H1132l352-341-129-130-565 565 565 565 129-131z"/><glyph glyph-name="less_less_equal.liga" unicode="&lt;&lt;=" horiz-adv-x="3690" vert-adv-y="1980" d="M720 1222l129-131-449-434 449-435L720 92 155 657zm2824-434H1176l-136-131 137-133h2367q14 0 22-8t8-22V365q0-13-8-21.5t-22-8.5H1372l117-113-129-130-565 565 565 565 129-131-118-114h2173q14 0 22-8.5t8-21.5V818q0-14-8-22t-22-8z"/><glyph glyph-name="less_slash.liga" unicode="&lt;/" horiz-adv-x="2460" vert-adv-y="1980" d="M1970 1430h192q17 0 23.5-9.5t.5-24.5L1496-236q-10-24-36-24h-192q-17 0-24 9t0 25l70 166L293 547q-22 13-22 35v140q0 22 22 35l709 427q25 16 40-10l78-131q7-11 4-23t-15-19L512 652l882-523 541 1277q10 24 35 24z"/><glyph glyph-name="less_slash_greater.liga" unicode="&lt;/&gt;" horiz-adv-x="3690" vert-adv-y="1980" d="M2246 1230l1021-607q22-13 22-35V448q0-22-22-35L2558-14q-25-16-40 10l-78 131q-7 11-4 23t15 19l598 349-883 523-540-1277q-10-24-36-24h-192q-17 0-24 9t0 25l70 166L423 547q-22 13-22 35v140q0 22 22 35l709 427q25 16 40-10l78-131q7-11 4-23t-15-19L642 652l882-523 541 1277q11 24 35 24h192q17 0 24-9t0-25z"/><glyph glyph-name=".notdef" horiz-adv-x="990" vert-adv-y="1980" d="M184 1600h628V-380H184v1980zm475-198v65H333v-65h128v-73H331v-66h328v66H529v73h130zm-130-329v139H331v-206h328v67H529zm-133 72h65v-72h-65v72zm263-258v66H331v-66h130v-73H331v-65h198v138h130zm0-251v198h-65V703H331v-67h328zm0-268v224H461V481h68v46h65v-93H396v158h-65V368h328zm0-342v224H331V26h328zM396 184h198V91H396v93zM659-85v65H331v-65h138l-138-93v-65h328v65H457l139 93h63z"/><glyph glyph-name=".null" horiz-adv-x="0" vert-adv-y="0"/><glyph glyph-name="nonmarkingreturn" horiz-adv-x="666"/><glyph glyph-name="space" vert-adv-y="1980"/><glyph glyph-name="exclam" unicode="!" vert-adv-y="1980" d="M673 519H559q-14 0-24.5 8.5T523 550l-66 626q-9 83 37.5 134t120.5 51 120.5-51 37.5-134l-65-626q-3-31-35-31zM616-26q-78 0-133 55t-55 132q0 78 55 133t133 55q77 0 132-55t55-133q0-77-55-132T616-26z"/><glyph glyph-name="quotedbl" unicode="&quot;" vert-adv-y="1980" d="M461 748H312q-30 0-30 26l-11 594q0 32 30 32h171q30 0 30-32l-11-594q0-26-30-26zm457 0H769q-30 0-30 26l-11 594q0 32 30 32h171q30 0 30-32l-11-594q0-26-30-26z"/><glyph glyph-name="numbersign" unicode="#" vert-adv-y="1980" d="M960 1039h161q14 0 21.5-8.5t5.5-21.5l-19-129q-5-30-35-30H934l-46-326h160q14 0 21.5-8.5t5.5-21.5l-19-129q-5-30-35-30H861L808-45q-5-30-34-30H639q-14 0-21 8.5T613-45l53 380H464L411-45q-5-30-34-30H242q-14 0-21 8.5T216-45l53 380H109q-14 0-21 8.5T83 365l18 129q5 30 34 30h161l46 326H181q-14 0-21 8.5t-5 21.5l19 129q5 30 34 30h160l54 381q5 30 34 30h135q14 0 21-8.5t5-21.5l-54-381h202l54 381q5 30 34 30h135q14 0 21-8.5t5-21.5zM491 524h202l46 326H537z"/><glyph glyph-name="dollar" unicode="$" vert-adv-y="1980" d="M1075 494q0-131-96.5-210.5T695 190V-50q0-30-30-30H564q-30 0-30 30v240q-165 12-266 77T154 454q-1 14 7.5 22t22.5 8h181q24 0 30-21 24-71 167-83v237q-53 7-92 15t-88 22-83 35.5-64.5 52-46 74.5-15.5 99q0 131 92 210.5t269 93.5v231q0 30 30 30h101q30 0 30-30v-231q155-13 252-77.5T1056 961q1-14-7.5-22t-22.5-8H846q-25 0-30 21-19 60-149 76V794q47-6 79.5-11.5t79-17 78-25.5 66.5-37 56-51 35-68.5 14-89.5zM418 921q0-49 34-74t110-39v221q-144-11-144-108zm249-318V380q163 13 163 112 0 49-39 73t-124 38z"/><glyph glyph-name="percent" unicode="%" vert-adv-y="1980" d="M326 868q-137 0-205.5 81T52 1176q0 145 68.5 225.5T326 1482q138 0 207-80.5t69-225.5q0-146-69-227t-207-81zm0 179q55 0 75.5 33t20.5 96q0 62-20.5 94t-75.5 32q-54 0-74-32t-20-94q0-63 20-96t74-33zM191 169l-84 82q-21 20 0 43l891 929q20 23 44 1l83-81q21-21 0-44L234 171q-20-22-43-2zM902-86Q765-86 696.5-5T628 222t68 226 206 80 207.5-80.5T1179 222q0-146-69.5-227T902-86zm0 179q56 0 76 33t20 96q0 62-20 94.5T902 349q-54 0-74-32.5T808 222t20-95.5T902 93z"/><glyph glyph-name="ampersand" unicode="&amp;" vert-adv-y="1980" d="M575 761l597-634q21-23 0-44L1067-22q-24-24-44-2L866 142Q812 66 711 20T497-26Q303-26 177.5 95.5T52 400q0 125 61.5 225T281 775q-105 145-105 275 0 134 99 222.5t259 88.5q161 0 258.5-88.5T890 1038q0-38-7-71H662q4 35 4 66 0 52-35.5 84t-94.5 32-94.5-33.5T406 1028q0-33 11.5-64.5t42-70.5 49-60 66.5-72zm428-180q-61 0-104.5 43.5T855 729t43.5 104.5T1003 877t104.5-43.5T1151 729t-43.5-104.5T1003 581zM524 189q61 0 117.5 24.5T730 286L434 599q-6 7-19 20-69-26-103-80t-34-120q0-100 71-165t175-65z"/><glyph glyph-name="quotesingle" unicode="'" vert-adv-y="1980" d="M689 748H541q-30 0-30 26l-11 594q0 32 30 32h171q30 0 30-32l-12-594q0-26-30-26z"/><glyph glyph-name="parenleft" unicode="(" vert-adv-y="1980" d="M952 1532v-236q-88 0-154.5-18.5t-111.5-58-74-90-44.5-127-21.5-156-6-188.5 6-188.5T567.5 313 612 185t74-91 111.5-58.5T952 17v-235q-454 0-597 341-74 175-77 493v42q0 75 2.5 134.5T291 927t22 133.5 39 124 60 114 86 94.5 115 75 150 46.5 189 17.5z"/><glyph glyph-name="parenright" unicode=")" vert-adv-y="1980" d="M278 1296v236q103 0 189-17.5t150-46.5 115-75 86-94.5 60-114 39-124T939 927t10.5-134.5T952 658q0-307-56-478-105-325-448-384-78-14-170-14V17q88 0 154.5 18.5T544 94t74 91 44.5 128T684 469.5t6 188.5-6 188.5-21.5 156-44.5 127-74 90-111.5 58T278 1296z"/><glyph glyph-name="asterisk" unicode="*" vert-adv-y="1980" d="M1077 893l40-155q10-43-34-54l-281-71 188-240q30-38-9-64l-138-92q-36-25-61 12L615 476 448 229q-25-37-61-12l-137 92q-39 28-10 64l188 240-281 71q-44 11-34 54l40 155q4 21 20 30t37 3l287-84-9 307q0 20 12.5 32.5T533 1194h158q20 0 32.5-12.5T736 1149l-3-307 287 84q21 6 37-3t20-30z"/><glyph glyph-name="plus" unicode="+" vert-adv-y="1980" d="M710 750h375q13 0 21.5-8t8.5-22V591q0-13-8.5-21.5T1085 561H710V177q0-13-8-21.5t-22-8.5H550q-14 0-22 8.5t-8 21.5v384H145q-13 0-21.5 8.5T115 591v129q0 14 8.5 22t21.5 8h375v384q0 14 8 22t22 8h130q14 0 22-8t8-22V750z"/><glyph glyph-name="comma" unicode="," vert-adv-y="1980" d="M383 212h454q13 0 21.5-8t8.5-22V95q0-294-39-463-6-22-36-22H653q-31 0-29 32 18 185 15 358H383q-13 0-21.5 8T353 30v152q0 14 8.5 22t21.5 8z"/><glyph glyph-name="hyphen" unicode="-" vert-adv-y="1980" d="M145 760h940q13 0 21.5-8t8.5-22V583q0-13-8.5-21.5T1085 553H145q-13 0-21.5 8.5T115 583v147q0 14 8.5 22t21.5 8z"/><glyph glyph-name="period" unicode="." vert-adv-y="1980" d="M615-26q-81 0-139 57.5T418 171q0 81 58 138.5T615 367t139-57.5T812 171q0-82-58-139.5T615-26z"/><glyph glyph-name="slash" unicode="/" vert-adv-y="1980" d="M360-260H168q-17 0-24 9t0 25l691 1632q11 24 35 24h192q17 0 23.5-9.5t.5-24.5L396-236q-10-24-36-24z"/><glyph glyph-name="zero" unicode="0" vert-adv-y="1980" d="M615-30q-184 0-292 66T164 253t-51 413q0 261 51 412t159 216.5 292 65.5 292-65.5 159-216.5 51-412q0-262-51-413T907 36 615-30zm0 242q73 0 118.5 16.5t80 65T863 432t15 234q0 143-15 233t-49.5 138-80 64.5T615 1118t-118.5-16.5-80-64.5T367 899t-15-233q0-144 15-234t49.5-138.5 80-65T615 212zm-20 294H473l164 318h122z"/><glyph glyph-name="one" unicode="1" vert-adv-y="1980" d="M805 214h258q13 0 21.5-8t8.5-22V30q0-14-8.5-22T1063 0H177q-13 0-21.5 8T147 30v154q0 14 8.5 22t21.5 8h376v890q-47-115-138.5-159T167 901q-30 0-30 28v166q0 32 30 32 261 0 386 213h222q13 0 21.5-8t8.5-22V214z"/><glyph glyph-name="two" unicode="2" vert-adv-y="1980" d="M1045 0H157q-13 0-21.5 8T127 30v132q0 91 24 165.5T216 453t94 92 111.5 71 117 56.5T650 726t94 57 65 72 24 94q0 83-58 133.5T603 1133q-107 0-170-50t-68-155q-1-30-35-30H154q-13 0-20.5 9.5T126 932q0 204 127 316t353 112q216 0 341-103.5T1072 962q0-79-23.5-144t-63-110.5-91-83-108.5-66T672 504t-108.5-54.5-91-60.5-63-76.5T386 214h659q13 0 21.5-8t8.5-22V30q0-14-8.5-22T1045 0z"/><glyph glyph-name="three" unicode="3" vert-adv-y="1980" d="M606-30Q370-30 242.5 78T115 389q0 33 27 33h177q33 0 34-30 4-98 70.5-146.5T604 197q120 0 188.5 50T861 387q0 93-79.5 148.5T521 591q-30 0-30 30v130q0 30 31 30 91 0 155 16.5t96 45 45 58 13 63.5q0 81-64.5 125T602 1133q-104 0-168.5-48.5T365 939q-1-30-34-30H155q-13 0-21 10t-8 24q0 200 127 308.5T605 1360q210 0 340-94t130-260q0-207-212-294v-21q267-87 267-329 0-182-143.5-287T606-30z"/><glyph glyph-name="four" unicode="4" vert-adv-y="1980" d="M981 504h140q13 0 21.5-8t8.5-22V328q0-14-8.5-22t-21.5-8H981V30q0-14-8.5-22T951 0H759q-13 0-21.5 8T729 30v268H121q-13 0-21.5 8T91 328v159q0 21 13 38l613 795q16 20 36 20h198q13 0 21.5-8t8.5-22V504zm-619 0h367v474z"/><glyph glyph-name="five" unicode="5" vert-adv-y="1980" d="M605-30q-208 0-334.5 92.5T125 343q-3 31 28 31h173q24 0 32-28 42-160 250-160 138 0 205.5 67T881 440q0 123-67.5 191T623 699q-85 0-144-31.5T391 586q-12-23-44-11l-165 60q-24 10-20 37l120 642q5 26 32 26h670q14 0 22-8t8-22v-154q0-14-8-22t-22-8H476l-57-303h24q80 88 252 88 199 0 315-123.5T1126 449q0-227-136.5-353T605-30z"/><glyph glyph-name="six" unicode="6" vert-adv-y="1980" d="M624-30Q378-30 251 95.5T122 439l-2 434q-1 244 137.5 365.5T638 1360q265 0 403-153 15-16 1-35l-88-115q-15-20-35-3-105 81-253 81-63 0-115-13.5t-95-43-67.5-82.5T364 871V742h17q28 62 108 97.5T682 875q211 0 330-123.5T1131 428q0-209-131.5-333.5T624-30zm1 220q122 0 191.5 61.5T886 428q0 114-69.5 175T625 664t-191.5-61T364 428q0-115 69.5-176.5T625 190z"/><glyph glyph-name="seven" unicode="7" vert-adv-y="1980" d="M182 1340h905q13 0 21.5-8t8.5-22v-164q0-22-8-38L572 32Q556 0 534 0H340q-14 0-21.5 9.5T318 32l547 1094H380V982q0-14-8-22t-22-8H182q-14 0-22 8t-8 22v328q0 14 8 22t22 8z"/><glyph glyph-name="eight" unicode="8" vert-adv-y="1980" d="M615-30Q365-30 232.5 82T100 379q0 125 62.5 218.5T348 730v26q-77 32-118 103.5T189 1021q0 149 111.5 244t314.5 95 314.5-95 111.5-244q0-89-41.5-161T882 756v-26q123-39 186-132.5t63-218.5q0-185-133-297T615-30zm0 852q93 0 143.5 42T809 987t-51 124.5-143 43.5-143-43.5T421 987t50.5-123T615 822zm0-636q122 0 196.5 58T886 411t-75 166.5T615 635t-196-57.5T344 411t74.5-167T615 186z"/><glyph glyph-name="nine" unicode="9" vert-adv-y="1980" d="M606 1360q246 0 373-125.5T1108 891l3-434q1-244-138-365.5T592-30q-265 0-403 153-15 16-1 35l88 115q15 19 35 4 105-82 253-82 63 0 115 13.5t95 43 67.5 82.5T866 459v129h-17q-28-62-107.5-97.5T548 455q-211 0-329.5 123.5T100 903q0 208 131 332.5T606 1360zm-1-220q-122 0-191.5-61.5T344 903q0-115 69-176t192-61 192 61 69 176q0 114-69.5 175.5T605 1140z"/><glyph glyph-name="colon" unicode=":" vert-adv-y="1980" d="M615 620q-81 0-139 57.5T418 816q0 82 58 139.5t139 57.5 139-57.5T812 816q0-81-58-138.5T615 620zm0-646q-81 0-139 57.5T418 171q0 81 58 138.5T615 367t139-57.5T812 171q0-82-58-139.5T615-26z"/><glyph glyph-name="semicolon" unicode=";" vert-adv-y="1980" d="M615 620q-81 0-139 57.5T418 816q0 82 58 139.5t139 57.5 139-57.5T812 816q0-81-58-138.5T615 620zM392 212h453q13 0 21.5-8t8.5-22V95q0-294-39-463-4-22-35-22H662q-32 0-29 32 17 204 15 358H392q-14 0-22 8t-8 22v152q0 14 8 22t22 8z"/><glyph glyph-name="less" unicode="&lt;" vert-adv-y="1980" d="M919 126L210 553q-22 13-22 34v141q0 21 22 34l709 427q25 16 40-10l78-130q7-12 4-24t-15-19L428 657l598-350q26-15 11-41l-78-131q-15-25-40-9z"/><glyph glyph-name="equal" unicode="=" vert-adv-y="1980" d="M1079 788H151q-13 0-21.5 8t-8.5 22v129q0 13 8.5 21.5T151 977h928q13 0 21.5-8.5t8.5-21.5V818q0-14-8.5-22t-21.5-8zm0-453H151q-13 0-21.5 8.5T121 365v129q0 14 8.5 22t21.5 8h928q13 0 21.5-8t8.5-22V365q0-13-8.5-21.5T1079 335z"/><glyph glyph-name="greater" unicode="&gt;" vert-adv-y="1980" d="M1020 553L311 126q-25-16-40 9l-78 131q-15 26 11 41l599 350-599 349q-12 7-15 19t4 24l78 130q15 26 40 10l709-427q22-13 22-34V587q0-21-22-34z"/><glyph glyph-name="question" unicode="?" vert-adv-y="1980" d="M694 448H509q-30 0-30 32 0 76 20.5 132t53.5 88.5 72.5 56.5 79.5 42.5 73 39 53.5 53.5 20.5 78q0 76-56.5 119.5T623 1133q-242 0-250-200-1-28-34-28H164q-29 0-29 32 0 205 128 314.5T619 1361q219 0 347.5-100.5T1095 972q0-71-20-124.5t-52-86-70.5-58-77.5-46-72-42.5-54.5-56.5T725 478q-1-30-31-30zM606-26q-77 0-132 55t-55 132q0 78 55 133t132 55 132-55 55-133q0-77-55-132T606-26z"/><glyph glyph-name="at" unicode="@" vert-adv-y="1980" d="M624 1411q500 0 500-507V508q0-150-82-226t-215-76q-299 0-299 302v316q0 149 94 235.5t243 81.5q-68 83-241 83-79 0-135.5-15.5t-101-54-67-109.5T298 869V285q0-82 17.5-141.5T365 46t84.5-60 114-30.5T710-53q164 0 282 25v-176q-120-34-300-34-146 0-251.5 25.5t-182 83.5T144 27.5 106 267v621q0 140 36 242t105 163 162 89.5 215 28.5zm308-889v355q0 73-11 131-94 11-147-37t-53-166V522q0-65 23-100.5t83-35.5q54 0 79.5 37.5T932 522z"/><glyph glyph-name="A" unicode="A" vert-adv-y="1980" d="M812 1316L1162 34q8-34-24-34H934q-29 0-34 24l-60 237H390L330 24q-5-24-34-24H93Q59 0 69 34l349 1282q8 24 35 24h324q27 0 35-24zm-215-246L447 484h336l-150 586h-36z"/><glyph glyph-name="B" unicode="B" vert-adv-y="1980" d="M632 0H153q-13 0-21.5 8T123 30v1280q0 14 8.5 22t21.5 8h498q108 0 188.5-26t126.5-72.5 67.5-104T1055 1011q0-106-53-181t-168-99v-20q292-41 292-337 0-185-117-279.5T632 0zM384 1108V815h242q98 0 140.5 38T809 969q0 75-41.5 107T626 1108H384zm0-511V232h254q121 0 173.5 42T864 411q0 93-53 139.5T638 597H384z"/><glyph glyph-name="C" unicode="C" vert-adv-y="1980" d="M632-30q-279 0-401.5 162.5T108 665t122.5 532.5T632 1360q114 0 198-25.5t148.5-83.5 100-157.5T1121 851q2-33-28-33H910q-29 0-32 26-9 81-30 135t-54.5 82-71.5 38.5-91 10.5q-69 0-116-18.5t-83.5-67-53.5-137T361 665t17-222.5 53.5-137 83.5-67T631 220q111 0 170 45.5T878 430q3 26 32 26h183q30 0 28-32-13-241-137-347.5T632-30z"/><glyph glyph-name="D" unicode="D" vert-adv-y="1980" d="M578 0H158q-14 0-22 8t-8 22v1280q0 14 8 22t22 8h420q129 0 227-33t161-90 103-143 56-184 16-220-16-220-56-184-103-143-161-90T578 0zM389 1108V232h180q76 0 130.5 20t88 55 53.5 91.5 27 120 7 151.5-7 151.5-27 120-53.5 91.5-88 55-130.5 20H389z"/><glyph glyph-name="E" unicode="E" vert-adv-y="1980" d="M1044 0H187q-13 0-21.5 8T157 30v1280q0 14 8.5 22t21.5 8h855q14 0 22-8t8-22v-172q0-14-8-22t-22-8H418V791h579q13 0 21.5-8.5t8.5-21.5V589q0-13-8.5-21.5T997 559H418V232h626q14 0 22-8t8-22V30q0-14-8-22t-22-8z"/><glyph glyph-name="F" unicode="F" vert-adv-y="1980" d="M386 0H185q-13 0-21.5 8T155 30v1280q0 14 8.5 22t21.5 8h860q13 0 21.5-8t8.5-22v-172q0-14-8.5-22t-21.5-8H416V700h583q13 0 21.5-8t8.5-22V497q0-13-8.5-21.5T999 467H416V30q0-14-8-22t-22-8z"/><glyph glyph-name="G" unicode="G" vert-adv-y="1980" d="M1102 719q14 0 22-8.5t8-21.5V530q0-294-119-427T633-30q-280 0-402.5 162.5T108 665t122.5 532.5T632 1360q114 0 198-23.5t148.5-77 100-145.5 41.5-223q3-33-27-33H910q-30 0-34 26-16 128-77 177t-168 49q-69 0-116-18.5t-83.5-67-53.5-137T361 665q0-108 12-186t33.5-128 57-79 77.5-40.5T641 220q63 0 106 13t75.5 45 48 89T886 510v5H604q-14 0-22 8.5t-8 21.5v144q0 13 8 21.5t22 8.5h498z"/><glyph glyph-name="H" unicode="H" vert-adv-y="1980" d="M861 1340h201q14 0 22-8t8-22V30q0-14-8-22t-22-8H861q-13 0-21.5 8T831 30v513H399V30q0-14-8.5-22T369 0H168q-14 0-22 8t-8 22v1280q0 14 8 22t22 8h201q13 0 21.5-8t8.5-22V775h432v535q0 14 8.5 22t21.5 8z"/><glyph glyph-name="I" unicode="I" vert-adv-y="1980" d="M1069 0H161q-13 0-21.5 8T131 30v172q0 14 8.5 22t21.5 8h323v876H161q-13 0-21.5 8t-8.5 22v172q0 14 8.5 22t21.5 8h908q13 0 21.5-8t8.5-22v-172q0-14-8.5-22t-21.5-8H746V232h323q13 0 21.5-8t8.5-22V30q0-14-8.5-22T1069 0z"/><glyph glyph-name="J" unicode="J" vert-adv-y="1980" d="M1076 1340q14 0 22-8t8-22V514q0-269-137.5-406.5T593-30q-231 0-364.5 130.5T95 492q0 30 30 30h196q29 0 30-30 3-137 67.5-204.5T598 220q246 0 246 302v586H304q-14 0-22 8t-8 22v172q0 14 8 22t22 8h772z"/><glyph glyph-name="K" unicode="K" vert-adv-y="1980" d="M675 729l489-693q10-15 5-25.5T1146 0H924q-23 0-36 18L522 536 372 346V30q0-14-8-22t-22-8H140q-14 0-22 8t-8 22v1280q0 14 8 22t22 8h202q14 0 22-8t8-22V708l464 616q12 16 36 16h242q19 0 23.5-11t-7.5-25z"/><glyph glyph-name="L" unicode="L" vert-adv-y="1980" d="M1059 0H202q-14 0-22 8t-8 22v1280q0 14 8 22t22 8h201q13 0 21.5-8t8.5-22V232h626q13 0 21.5-8t8.5-22V30q0-14-8.5-22T1059 0z"/><glyph glyph-name="M" unicode="M" vert-adv-y="1980" d="M308 0H153q-13 0-21.5 8T123 30v1280q0 14 8.5 22t21.5 8h208q32 0 36-20l211-926h14l211 926q4 20 36 20h208q13 0 21.5-8t8.5-22V30q0-14-8.5-22T1077 0H922q-14 0-22 8t-8 22v779h-14L711 124q-6-24-35-24H555q-30 0-36 24L352 809h-14V30q0-14-8-22t-22-8z"/><glyph glyph-name="N" unicode="N" vert-adv-y="1980" d="M878 1340h175q13 0 21.5-8t8.5-22V30q0-14-8.5-22T1053 0H825q-27 0-36 20L382 923V30q0-14-8-22t-22-8H177q-13 0-21.5 8T147 30v1280q0 14 8.5 22t21.5 8h229q27 0 36-20l406-902v892q0 14 8 22t22 8z"/><glyph glyph-name="O" unicode="O" vert-adv-y="1980" d="M615-30q-267 0-387 163T108 665t120 532 387 163 387-163 120-532-120-532T615-30zm0 250q50 0 87 11t70 40.5 53.5 79.5 32 128.5T869 665t-11.5 185.5-32 128.5-53.5 79.5-70 40.5-87 11-87-11-70-40.5-53.5-79.5-32-128.5T361 665t11.5-185.5 32-128.5 53.5-79.5 70-40.5 87-11z"/><glyph glyph-name="P" unicode="P" vert-adv-y="1980" d="M170 1340h468q487 0 487-450T638 440H401V30q0-14-8.5-22T371 0H170q-14 0-22 8t-8 22v1280q0 14 8 22t22 8zm231-668h223q126 0 188 49.5T874 890q0 120-62 169t-188 49H401V672z"/><glyph glyph-name="Q" unicode="Q" vert-adv-y="1980" d="M615-30q-267 0-387 163T108 665t120 532 387 163 387-163 120-532-120-532T615-30zm0 250q50 0 87 11t70 40.5 53.5 79.5 32 128.5T869 665t-11.5 185.5-32 128.5-53.5 79.5-70 40.5-87 11-87-11-70-40.5-53.5-79.5-32-128.5T361 665t11.5-185.5 32-128.5 53.5-79.5 70-40.5 87-11zm467-590q-60-3-112.5 5.5T877-342t-79.5 28.5-92 25T594-278q-32 0-32 28v143q0 32 32 32 72 1 137-13.5t106-32 106-32 137-14.5q32 0 32-28v-143q0-30-30-32z"/><glyph glyph-name="R" unicode="R" vert-adv-y="1980" d="M892 481l227-446q8-16 1.5-25.5T1097 0H898q-24 0-35 23L652 440H406V30q0-14-8-22t-22-8H175q-13 0-21.5 8T145 30v1280q0 14 8.5 22t21.5 8h468q487 0 487-450 0-314-238-409zm-263 627H406V672h223q126 0 188 49.5T879 890q0 120-62 169t-188 49z"/><glyph glyph-name="S" unicode="S" vert-adv-y="1980" d="M607-30q-469 0-498 395-1 15 7 25t21 10h187q24 0 29-29 31-170 264-170 73 0 126.5 16t87.5 56 34 101q0 74-59 118.5T592 570q-76 16-137 36t-122.5 53.5-102.5 76-66.5 106T138 983q0 173 122 275t359 102q211 0 329-90.5T1084 985q1-15-6.5-24.5T1056 951H883q-24 0-29 28-28 150-241 150-108 0-164.5-40T392 974q0-67 57-113t208-78q60-13 101.5-24t94-29 88-38.5T1013 640t58.5-68.5T1107 483t14-113q0-194-131.5-297T607-30z"/><glyph glyph-name="T" unicode="T" vert-adv-y="1980" d="M716 0H514q-14 0-22 8t-8 22v1078H130q-14 0-22 8t-8 22v172q0 14 8 22t22 8h970q14 0 22-8t8-22v-172q0-14-8-22t-22-8H746V30q0-14-8-22t-22-8z"/><glyph glyph-name="U" unicode="U" vert-adv-y="1980" d="M615-30Q378-30 253 91.5T128 454v856q0 14 8 22t22 8h201q13 0 21.5-8t8.5-22V475q0-123 57-189t169-66 169 66 57 189v835q0 14 8.5 22t21.5 8h201q14 0 22-8t8-22V454q0-241-125-362.5T615-30z"/><glyph glyph-name="V" unicode="V" vert-adv-y="1980" d="M777 0H453q-27 0-35 24L64 1306q-10 34 24 34h203q29 0 34-24L597 271h36l272 1045q5 24 34 24h204q33 0 24-34L812 24q-8-24-35-24z"/><glyph glyph-name="W" unicode="W" vert-adv-y="1980" d="M958 1340h181q29 0 24-34L1012 24q-1-11-13-17.5T974 0H746q-31 0-34 24l-97 659-97-659q-3-24-34-24H256q-13 0-25 6.5T218 24L67 1306q-3 34 24 34h181q31 0 34-24l90-975 135 855q4 24 34 24h100q30 0 34-24l135-855 90 975q3 24 34 24z"/><glyph glyph-name="X" unicode="X" vert-adv-y="1980" d="M754 681l389-645q10-16 4-26t-24-10H910q-25 0-36 20L615 450 356 20Q345 0 320 0H108Q90 0 84 10t4 26l388 645-375 623q-10 16-4 26t24 10h212q25 0 36-20l246-408 246 408q11 20 36 20h212q18 0 24-10t-4-26z"/><glyph glyph-name="Y" unicode="Y" vert-adv-y="1980" d="M929 1340h212q18 0 23.5-10t-3.5-26L746 518V30q0-14-8-22t-22-8H514q-14 0-22 8t-8 22v492L69 1304q-9 16-3.5 26t23.5 10h213q25 0 36-20l277-553 278 553q10 20 36 20z"/><glyph glyph-name="Z" unicode="Z" vert-adv-y="1980" d="M1074 0H157q-13 0-21.5 8T127 30v182q0 20 12 36l660 860H177q-13 0-21.5 8t-8.5 22v172q0 14 8.5 22t21.5 8h877q14 0 22-8t8-22v-182q0-18-12-36L411 232h663q14 0 22-8t8-22V30q0-14-8-22t-22-8z"/><glyph glyph-name="bracketleft" unicode="[" vert-adv-y="1980" d="M918-218H313q-13 0-21.5 8t-8.5 22v1690q0 14 8.5 22t21.5 8h605q14 0 22-8t8-22v-147q0-13-8-21.5t-22-8.5H544V-12h374q14 0 22-8t8-22v-146q0-14-8-22t-22-8z"/><glyph glyph-name="backslash" unicode="\" vert-adv-y="1980" d="M1062-260H871q-25 0-36 24L144 1396q-6 15 .5 24.5t23.5 9.5h192q24 0 35-24l691-1632q7-16 0-25t-24-9z"/><glyph glyph-name="bracketright" unicode="]" vert-adv-y="1980" d="M918-218H313q-13 0-21.5 8t-8.5 22v146q0 14 8.5 22t21.5 8h373v1337H313q-13 0-21.5 8.5T283 1355v147q0 14 8.5 22t21.5 8h605q14 0 22-8t8-22V-188q0-14-8-22t-22-8z"/><glyph glyph-name="asciicircum" unicode="^" vert-adv-y="1980" d="M1064 573H893q-23 0-34 24l-244 574-244-574q-11-24-34-24H166q-17 0-23.5 9.5t.5 25.5l339 770q9 22 34 22h198q25 0 34-22l340-770q7-16 0-25.5t-24-9.5z"/><glyph glyph-name="underscore" unicode="_" vert-adv-y="1980" d="M145 0h940q13 0 21.5-8t8.5-22v-147q0-13-8.5-21.5T1085-207H145q-13 0-21.5 8.5T115-177v147q0 14 8.5 22T145 0z"/><glyph glyph-name="grave" unicode="`" vert-adv-y="1980" d="M764 1187H596q-23 0-34 24l-120 252q-7 16 0 25t24 9h168q23 0 34-24l120-252q7-16 0-25t-24-9z"/><glyph glyph-name="a" unicode="a" vert-adv-y="1980" d="M1088 172q15-11 22-17.5t12-19.5 5-31V70q0-85-115-85-78 0-129.5 44.5T831 160v21h-16Q785 94 701 34.5T483-25h-50q-148 0-233 77.5T115 271q0 267 312 287l377 25v53q0 98-43.5 134.5T603 807q-97 0-144.5-24T403 701q-3-21-28-21H193q-31 0-29 30 7 300 445 300 164 0 262.5-44t139-126 40.5-213V289q0-56 8.5-79t28.5-38zm-567-5h30q66 0 121.5 20t93.5 66.5T804 366v59l-315-23q-129-10-129-115 0-120 161-120z"/><glyph glyph-name="b" unicode="b" vert-adv-y="1980" d="M667 1010q218 0 347-145.5T1143 489q0-222-117.5-368T716-25q-121 0-204 59T396 186h-25L356 30q-3-30-29-30H159q-13 0-21.5 8T129 30v1340q0 14 8.5 22t21.5 8h192q13 0 21.5-8t8.5-22V892q94 118 286 118zm-34-802q119 0 191.5 77.5T897 493t-72.5 207T633 777q-120 0-191.5-76.5T370 493t71.5-208T633 208z"/><glyph glyph-name="c" unicode="c" vert-adv-y="1980" d="M652 209q144 0 233 113 18 23 40 8l134-91q25-17 9-40-65-103-175-163.5T644-25q-223 0-370 147T127 493t147 370.5T644 1010q139 0 249-60.5T1068 786q16-23-10-41l-133-90q-22-15-40 8-89 113-233 113-121 0-200.5-78.5T372 493t79.5-205T652 209z"/><glyph glyph-name="d" unicode="d" vert-adv-y="1980" d="M879 1400h192q13 0 21.5-8t8.5-22V30q0-14-8.5-22T1071 0H903q-26 0-29 30l-15 156h-25Q801 93 718 34T514-25q-192 0-309.5 146T87 489q0 230 129 375.5T563 1010q192 0 286-118v478q0 14 8.5 22t21.5 8zM597 208q120 0 191.5 77T860 493t-71.5 207.5T597 777q-119 0-191.5-77T333 493t72.5-207.5T597 208z"/><glyph glyph-name="e" unicode="e" vert-adv-y="1980" d="M1108 522q0-54-17-76.5t-73-22.5l-655 1q8-118 93-183t223-65q128 0 231 56 23 13 41 7t44-39q30-37 32.5-58T1006 96Q950 41 857 8T651-25q-238 0-383.5 143.5T122 494q0 230 140 373t368 143q222 0 350-136t128-352zM631 796q-105 0-172.5-52T372 593h513q-14 100-81 152t-173 51z"/><glyph glyph-name="f" unicode="f" vert-adv-y="1980" d="M1079 1434q19-9 19-29v-142q0-33-35-28-3 0-34 5t-64.5 8-69.5 3q-124 0-186-51.5T647 1008v-28h405q14 0 22-8t8-22V806q0-14-8-22t-22-8H647V30q0-14-8.5-22T617 0H425q-13 0-21.5 8T395 30v746H177q-13 0-21.5 8t-8.5 22v144q0 14 8.5 22t21.5 8h218v61q0 98 24.5 173.5T485 1337t99.5 77.5 120.5 42 135 11.5q148 0 239-34z"/><glyph glyph-name="g" unicode="g" vert-adv-y="1980" d="M899 990h177q14 0 22-8t8-22V59q0-106-33-188.5T987.5-261 862-341.5t-144-43T567-396q-239 0-370 88-22 13-12 39l44 126q9 25 39 16 124-57 275-57 326 0 326 254v176h-29q-29-90-114.5-142.5T524 51q-187 0-304.5 133T102 520q0 214 126.5 352T553 1010q197 0 311-146l5 96q3 30 30 30zM603 266q111 0 182 72t71 186q0 115-70.5 185T603 779q-113 0-184-70t-71-185q0-114 71.5-186T603 266z"/><glyph glyph-name="h" unicode="h" vert-adv-y="1980" d="M730 1010q160 0 258-112t98-306V30q0-14-8-22t-22-8H864q-14 0-22 8t-8 22v514q0 108-57.5 170.5T615 777q-103 0-161-62.5T396 544V30q0-14-8-22t-22-8H174q-14 0-22 8t-8 22v1340q0 14 8 22t22 8h192q14 0 22-8t8-22V817h31q38 85 115.5 139t187.5 54z"/><glyph glyph-name="i" unicode="i" vert-adv-y="1980" d="M606 1223q-62 0-106 43.5T456 1372q0 63 44 106.5t106 43.5q63 0 106.5-43.5T756 1372q0-62-43.5-105.5T606 1223zM895 207h153q14 0 22-8.5t8-21.5V30q0-14-8-22t-22-8H796Q650 0 573 81t-77 229v473H187q-13 0-21.5 8.5T157 813v147q0 14 8.5 22t21.5 8h531q14 0 22-8t8-22V356q0-149 147-149z"/><glyph glyph-name="j" unicode="j" vert-adv-y="1980" d="M809 1223q-62 0-106 43.5T659 1372q0 63 44 106.5t106 43.5 106-43.5 44-106.5q0-62-44-105.5T809 1223zM501-385q-65 0-126.5 13t-105 33-74.5 43.5-42 45.5-2 37l72 120q16 27 47 7 104-68 209-68 43 0 79 10.5t69 35 52 72T698 77v706H260q-14 0-22 8.5t-8 21.5v147q0 14 8 22t22 8h660q14 0 22-8t8-22V50q0-98-28-175.5t-73-125-105.5-79-120-43.5T501-385z"/><glyph glyph-name="k" unicode="k" vert-adv-y="1980" d="M701 558l420-522q12-15 6-25.5T1103 0H884q-21 0-36 18L547 392 413 247V30q0-14-8.5-22T383 0H191q-13 0-21.5 8T161 30v1340q0 14 8.5 22t21.5 8h192q13 0 21.5-8t8.5-22V558l370 416q15 16 36 16h233q20 0 24.5-11t-8.5-25z"/><glyph glyph-name="l" unicode="l" vert-adv-y="1980" d="M1069 0H810Q658 0 574 88t-84 242v863H157q-13 0-21.5 8.5T127 1223v147q0 14 8.5 22t21.5 8h555q14 0 22-8t8-22V367q0-75 42-117.5T901 207h168q13 0 21.5-8.5t8.5-21.5V30q0-14-8.5-22T1069 0z"/><glyph glyph-name="m" unicode="m" vert-adv-y="1980" d="M289 0H120q-14 0-22 8t-8 22v930q0 14 8 22t22 8h165q28 0 30-30l5-109h19q41 159 190 159 139 0 185-159h15q45 159 196 159 106 0 160.5-76.5T1140 709V30q0-14-8-22t-22-8H941q-13 0-21.5 8T911 30v640q0 51-25 80t-71 29q-45 0-70-29t-25-80V30q0-14-8-22t-22-8H540q-14 0-22 8t-8 22v640q0 51-25 80t-70 29q-46 0-71-29t-25-80V30q0-14-8.5-22T289 0z"/><glyph glyph-name="n" unicode="n" vert-adv-y="1980" d="M730 1010q160 0 258-112t98-306V30q0-14-8-22t-22-8H864q-14 0-22 8t-8 22v514q0 108-57.5 170.5T615 777q-103 0-161-62.5T396 544V30q0-14-8-22t-22-8H174q-14 0-22 8t-8 22v930q0 14 8 22t22 8h184q28 0 30-30l8-143h31q38 85 115.5 139t187.5 54z"/><glyph glyph-name="o" unicode="o" vert-adv-y="1980" d="M615-25q-220 0-364.5 148T106 493q0 221 144.5 369T615 1010t365-148 145-369-145-369.5T615-25zm0 234q115 0 189.5 79T879 493t-74 204.5T615 776t-190-78.5T351 493t74.5-205T615 209z"/><glyph glyph-name="p" unicode="p" vert-adv-y="1980" d="M691 1010q203 0 322-145.5T1132 493q0-148-52-265T927 43 691-25q-108 0-181 43T399 134h-27v-484q0-14-8-22t-22-8H157q-13 0-21.5 8t-8.5 22V960q0 14 8.5 22t21.5 8h192q13 0 21.5-8t8.5-22v-99h20q38 67 111.5 108t180.5 41zm-64-802q118 0 189 77t71 208-71 207.5T627 777q-119 0-189-76.5T368 493t70-208 189-77z"/><glyph glyph-name="q" unicode="q" vert-adv-y="1980" d="M882 990h192q14 0 22-8t8-22V-350q0-14-8-22t-22-8H888q-14 0-22 8t-8 22v484h-27Q794 61 720.5 18T539-25q-135 0-236 68T150 228 98 493q0 226 119 371.5T539 1010q107 0 181-41t111-108h21v99q0 14 8 22t22 8zM603 208q119 0 189 77t70 208-70 207.5T603 777q-118 0-189-76.5T343 493t71-208 189-77z"/><glyph glyph-name="r" unicode="r" vert-adv-y="1980" d="M780 1010q157 0 252.5-99.5T1128 662q0-70-23-99t-67-29H927q-43 0-44 38-2 58-21 99.5T812 735t-66 32-77 10q-117 0-184-75t-67-226V30q0-14-8-22t-22-8H196q-14 0-22 8t-8 22v930q0 14 8 22t22 8h184q27 0 30-30l8-170h35q36 100 121.5 160t205.5 60z"/><glyph glyph-name="s" unicode="s" vert-adv-y="1980" d="M632 586q175-22 253-51 191-70 191-253 0-145-118-226T614-25q-96 0-175 15.5T298 37t-99.5 83T154 242q-1 14 7.5 22t22.5 8h181q24 0 30-21 29-85 223-85 212 0 212 114 0 58-53.5 81.5T596 401q-43 5-72 9.5t-72 13-72 19.5-64.5 26.5T257 507t-43.5 49.5-30.5 65-10 81.5q0 144 112 225.5t326 81.5q188 0 309.5-64.5T1056 749q1-14-7.5-22t-22.5-8H846q-24 0-30 21-11 36-68 57.5T605 819q-187 0-187-110 0-58 49.5-83.5T632 586z"/><glyph glyph-name="t" unicode="t" vert-adv-y="1980" d="M1095 252q41-41 46-68.5t-16-51.5q-14-20-41.5-44t-71-51T904-7.5 767-25q-54 0-104.5 10t-103 37.5-91.5 71-63.5 116T380 375v400H105q-13 0-21.5 8.5T75 805v145q0 14 8.5 22t21.5 8h275v280q0 14 8 22t22 8h192q14 0 22-8t8-22V980h414q14 0 22-8t8-22V805q0-13-8-21.5t-22-8.5H632V413q0-117 53-164.5T816 201q100 0 190 75 19 19 36.5 15t52.5-39z"/><glyph glyph-name="u" unicode="u" vert-adv-y="1980" d="M864 990h192q14 0 22-8t8-22V30q0-14-8-22t-22-8H872q-28 0-30 30l-8 143h-31Q765 88 687.5 34T500-20Q340-20 242 92t-98 306v562q0 14 8 22t22 8h192q14 0 22-8t8-22V446q0-108 57.5-170.5T615 213q103 0 161 62.5T834 446v514q0 14 8 22t22 8z"/><glyph glyph-name="v" unicode="v" vert-adv-y="1980" d="M615 285l260 681q9 24 36 24h192q17 0 24-9t0-25L750 24q-9-24-36-24H516q-27 0-36 24L103 956q-7 16 0 25t24 9h192q27 0 36-24z"/><glyph glyph-name="w" unicode="w" vert-adv-y="1980" d="M980 990h159q30 0 24-34L989 24q-5-24-36-24H766q-30 0-36 24L615 633 500 24q-6-24-36-24H277q-31 0-36 24L67 956q-6 34 24 34h159q13 0 24-6.5t12-17.5l99-674 134 664q5 24 36 24h120q31 0 36-24l134-664 99 674q1 11 12 17.5t24 6.5z"/><glyph glyph-name="x" unicode="x" vert-adv-y="1980" d="M758 512l386-476q12-15 6-25.5T1126 0H905q-23 0-36 18L615 337 361 18Q347 0 325 0H104Q86 0 80 10.5T86 36l388 476-359 442q-12 15-6 25.5t24 10.5h220q22 0 36-18l226-285 226 285q14 18 36 18h220q18 0 24-10.5t-6-25.5z"/><glyph glyph-name="y" unicode="y" vert-adv-y="1980" d="M911 990h192q17 0 24-9t0-25L603-356q-9-24-36-24H375q-17 0-24 9t0 25L490-3 103 956q-7 16 0 25t24 9h192q27 0 36-24l260-681 260 681q9 24 36 24z"/><glyph glyph-name="z" unicode="z" vert-adv-y="1980" d="M1047 960V806q0-24-14-38L478 206h544q14 0 22-8t8-22V30q0-14-8-22t-22-8H208q-14 0-22 8t-8 22v154q0 24 14 38l555 562H203q-13 0-21.5 8t-8.5 22v146q0 14 8.5 22t21.5 8h814q13 0 21.5-8t8.5-22z"/><glyph glyph-name="braceleft" unicode="{" vert-adv-y="1980" d="M603 1260V813q0-24-18-32L347 657l238-124q18-9 18-32V53q0-31 19-48t51-17h265q14 0 22-8t8-22v-146q0-14-8-22t-22-8H530q-76 0-132 45.5T342-28v462q0 25-18 36L53 628q-11 7-11 28.5T53 685l271 158q18 11 18 37v461q0 51 17 90t45.5 60 60 31 65.5 10h408q14 0 22-8t8-22v-147q0-13-8-21.5t-22-8.5H673q-32 0-51-17t-19-48z"/><glyph glyph-name="bar" unicode="|" vert-adv-y="1980" d="M484-350v1920q0 14 8 22t22 8h202q14 0 22-8t8-22V-350q0-14-8-22t-22-8H514q-14 0-22 8t-8 22z"/><glyph glyph-name="braceright" unicode="}" vert-adv-y="1980" d="M627 813v447q0 31-19 48t-51 17H293q-13 0-21.5 8.5T263 1355v147q0 14 8.5 22t21.5 8h407q34 0 65.5-10t60-31 45.5-60 17-90V880q0-26 18-37l272-158q11-7 11-28.5t-11-28.5L906 470q-18-11-18-36V-28q0-99-56-144.5T700-218H293q-13 0-21.5 8t-8.5 22v146q0 14 8.5 22t21.5 8h264q32 0 51 17t19 48v448q0 23 18 32l238 124-238 124q-18 8-18 32z"/><glyph glyph-name="asciitilde" unicode="~" vert-adv-y="1980" d="M376 897q61 0 113-21t86-52 68-68 60-68 60.5-52 71.5-21q54 0 86 37.5t37 86.5q4 22 30 22h149q26 0 26-26-1-142-87-225.5T856 426q-61 0-113.5 21t-87 52-68.5 68-60 68-60.5 52-71.5 21q-54 0-84.5-36.5T272 584q-4-21-30-21H93q-26 0-26 25 1 142 87.5 225.5T376 897z"/><glyph glyph-name="uni00A0" vert-adv-y="1980"/><glyph glyph-name="exclamdown" unicode="¡" vert-adv-y="1980" d="M616 1013q77 0 132-55t55-132q0-78-55-133t-132-55q-78 0-133 55t-55 133q0 77 55 132t133 55zm-57-545h114q32 0 35-31l65-626q9-83-37.5-134T615-374t-120.5 51T457-189l66 626q1 14 11.5 22.5T559 468z"/><glyph glyph-name="cent" unicode="¢" vert-adv-y="1980" d="M949 526l148-94q28-18 10-41-59-91-155.5-150.5T735 166V-50q0-30-30-30H604q-30 0-30 30v217q-202 29-330 176T116 700t128 357.5T574 1234v216q0 30 30 30h101q30 0 30-30v-215q119-15 216-75t156-151q18-23-10-41l-148-94q-22-14-42 8-80 99-200 114V405q119 15 200 113 20 23 42 8zM374 700q0-115 63.5-193.5T602 408v585q-101-20-164.5-99T374 700z"/><glyph glyph-name="sterling" unicode="£" vert-adv-y="1980" d="M425 229h660q13 0 21.5-8.5t8.5-21.5V30q0-14-8.5-22T1085 0H136q-14 0-22 8t-8 22v199q89 21 157.5 96.5T332 510q0 30-6 59H93q-13 0-21.5 8.5T63 599v66q0 13 8.5 21.5T93 695h184q-6 11-24 44.5T227.5 788 206 835t-20 56-11.5 57.5-5.5 67.5q0 185 127 292.5T639 1416q219 0 347.5-111.5T1115 999q0-32-28-32H911q-33 0-33 28-4 98-67 145.5T642 1188q-113 0-173.5-52.5T408 992q0-50 17-96.5t52.5-109T526 695h401q13 0 21.5-8.5T957 665v-66q0-13-8.5-21.5T927 569H564q3-25 3-52 0-182-142-288z"/><glyph glyph-name="currency" unicode="¤" vert-adv-y="1980" d="M1079 646q0-135-66-247l134-134-146-146-131 132q-113-72-255-72-143 0-254 72L229 119 83 265l134 134q-66 112-66 247t66 247L83 1026l146 146 132-131q112 71 254 71 143 0 254-72l132 132 146-146-134-134q66-112 66-246zM615 392q106 0 174 71t68 183q0 111-68.5 182.5T615 900t-173.5-71.5T373 646q0-112 68-183t174-71z"/><glyph glyph-name="yen" unicode="¥" vert-adv-y="1980" d="M929 1340h212q18 0 23.5-10t-3.5-26L765 554h265q14 0 22-8t8-22v-64q0-14-8-22t-22-8H746V289h284q14 0 22-8.5t8-21.5v-65q0-13-8.5-21t-21.5-8H746V30q0-14-8-22t-22-8H514q-14 0-22 8t-8 22v135H200q-14 0-22 8.5t-8 21.5v64q0 13 8 21.5t22 8.5h284v141H200q-14 0-22 8t-8 22v64q0 14 8 22t22 8h267L69 1304q-9 16-3.5 26t23.5 10h213q25 0 36-20l277-553 278 553q10 20 36 20z"/><glyph glyph-name="brokenbar" unicode="¦" vert-adv-y="1980" d="M716 843H514q-14 0-22 8.5t-8 21.5v697q0 14 8 22t22 8h202q14 0 22-8t8-22V873q0-13-8-21.5t-22-8.5zm0-1223H514q-14 0-22 8t-8 22v697q0 13 8 21.5t22 8.5h202q14 0 22-8.5t8-21.5v-697q0-14-8-22t-22-8z"/><glyph glyph-name="section" unicode="§" vert-adv-y="1980" d="M1115 490q0-166-98-270 50-85 50-202 0-194-121.5-296T593-380q-215 0-339 90.5T120-11q-1 15 7 25t21 10h181q22 0 29-29 15-67 77-103.5T597-145q222 0 222 176 0 75-50 116.5T591 224q-56 15-97 28t-94 35-90.5 45.5-76.5 59-63 77-39.5 97.5T115 687q0 156 97 257-48 82-48 199 0 184 117 291t327 107q189 0 304-90t133-272q1-15-6-24t-21-9H850q-22 0-29 27-13 60-69.5 97.5T609 1308q-93 0-146-45.5T410 1135q0-143 181-189 49-12 81-21t80-24 80.5-29 74-36 69-45 56-55 45.5-67.5 27.5-81T1115 490zm-524-37q141-34 227-72 53 44 53 120 0 87-66 132.5T591 717q-112 29-187 63-44-42-44-112 0-86 53.5-135.5T591 453z"/><glyph glyph-name="dieresis" unicode="¨" vert-adv-y="1980" d="M402 1238q-53 0-90.5 38t-37.5 93q0 53 37.5 90.5T402 1497t91-37.5 38-90.5q0-55-37.5-93t-91.5-38zm426 0q-53 0-91 38t-38 93q0 53 38 90.5t91 37.5 91-37.5 38-90.5q0-55-38-93t-91-38z"/><glyph glyph-name="copyright" unicode="©" vert-adv-y="1980" d="M615 92q-160 0-297.5 79.5T100 387.5 20 684t80 296.5 217.5 216T615 1276t297.5-79.5 217.5-216 80-296.5-80-296.5-217.5-216T615 92zm0 141q186 0 315.5 131.5T1060 684t-129.5 319.5T615 1135t-316-131.5T169 684t130-319.5T615 233zm14 151q-124 0-211 86.5T331 684t87 213.5T629 984q107 0 175-63 20-18 0-43l-47-53q-14-16-42-1-36 21-83 21-67 0-112.5-46.5T474 684t45.5-114.5T632 523q44 0 84 21 29 14 42-1l48-53q22-23-1-43-75-63-176-63z"/><glyph glyph-name="ordfeminine" unicode="ª" vert-adv-y="1980" d="M835 1400h125q19 0 19-19V701q0-19-19-19H836q-18 0-22 17l-11 58q-91-75-211-75-145 0-243 105.5T251 1046t98 258.5T593 1410q119 0 210-75l10 49q4 16 22 16zM624 860q79 0 133 53t54 133-54 133.5-133 53.5-132.5-53-53.5-134q0-80 53.5-133T624 860z"/><glyph glyph-name="guillemotleft" unicode="«" vert-adv-y="1980" d="M611 944L359 562l252-382q10-16 4-26t-24-10H393q-25 0-36 20L107 542q-14 20 0 40l250 378q11 20 36 20h198q18 0 24-10t-4-26zm512 0L871 562l252-382q10-16 4-26t-24-10H905q-25 0-36 20L619 542q-14 20 0 40l250 378q11 20 36 20h198q18 0 24-10t-4-26z"/><glyph glyph-name="logicalnot" unicode="¬" vert-adv-y="1980" d="M145 750h940q13 0 21.5-8t8.5-22V267q0-13-8.5-21.5T1085 237H928q-14 0-22 8.5t-8 21.5v294H145q-13 0-21.5 8.5T115 591v129q0 14 8.5 22t21.5 8z"/><glyph glyph-name="uni00AD" unicode="­" vert-adv-y="1980" d="M145 760h940q13 0 21.5-8t8.5-22V583q0-13-8.5-21.5T1085 553H145q-13 0-21.5 8.5T115 583v147q0 14 8.5 22t21.5 8z"/><glyph glyph-name="registered" unicode="®" vert-adv-y="1980" d="M615 1276q160 0 297.5-79.5t217.5-216 80-296.5-80-296.5-217.5-216T615 92t-297.5 79.5-217.5 216T20 684t80 296.5 217.5 216T615 1276zm0-1043q186 0 315.5 131.5T1060 684t-129.5 319.5T615 1135t-316-131.5T169 684t130-319.5T615 233zm128 357l143-147q7-7 4-13.5t-13-6.5H760q-12 0-20 9L596 585h-83V439q0-16-15-16H397q-16 0-16 16v490q0 16 16 16h291q86 0 143.5-45T889 765q0-74-40-118t-106-57zm-69 245H513V696h161q37 0 57.5 18t20.5 51-20.5 51.5T674 835z"/><glyph glyph-name="macron" unicode="¯" vert-adv-y="1980" d="M882 1300H348q-14 0-22 8t-8 22v137q0 13 8 21.5t22 8.5h534q14 0 22-8.5t8-21.5v-137q0-14-8-22t-22-8z"/><glyph glyph-name="degree" unicode="°" vert-adv-y="1980" d="M615 737q-133 0-222.5 88.5T303 1051q0 134 89.5 222t222.5 88 222.5-88 89.5-222q0-137-89.5-225.5T615 737zm0 168q69 0 106 43t37 103q0 58-37.5 100.5T615 1194t-105-42.5-37-100.5q0-60 36.5-103T615 905z"/><glyph glyph-name="plusminus" unicode="±" vert-adv-y="1980" d="M710 953h375q13 0 21.5-8.5t8.5-21.5V794q0-14-8.5-22t-21.5-8H710V380q0-14-8-22t-22-8H550q-14 0-22 8t-8 22v384H145q-13 0-21.5 8t-8.5 22v129q0 13 8.5 21.5T145 953h375v384q0 13 8 21.5t22 8.5h130q14 0 22-8.5t8-21.5V953zM151 189h928q13 0 21.5-8.5t8.5-21.5V30q0-14-8.5-22T1079 0H151q-13 0-21.5 8T121 30v129q0 13 8.5 21.5T151 189z"/><glyph glyph-name="uni00B2" unicode="²" vert-adv-y="1980" d="M432 410h618q14 0 22-8t8-22V240q0-14-8-22t-22-8H162q-14 0-22 8t-8 22v93q0 89 39 156t101 105.5T408.5 661 558 708t137 38.5T796 796t39 72q0 115-217 115-123 0-187-35t-73-119q-3-31-33-28l-174 20q-28 3-28 32 0 173 129 260t354 87q214 0 342.5-87.5T1077 868q0-70-35.5-123T949 661t-126-55-137.5-42T560 527t-92.5-48.5T432 410z"/><glyph glyph-name="uni00B3" unicode="³" vert-adv-y="1980" d="M898 710q121-29 181-83t60-154q0-289-517-289-100 0-174.5 7.5t-140.5 27-107.5 52-65.5 84T110 477q0 29 28 32l183 20q30 3 33-28 5-60 67-82.5T614 396t193.5 23 62.5 79q0 42-29 67t-104 38.5T530 617q-30 0-30 30v97q0 30 31 30 134 0 204 10t97 32 27 63q0 109-237 109-55 0-96.5-5.5t-77-19.5-56-41-23.5-67q-2-31-33-28l-183 19q-28 3-28 32 0 172 131 247t372 75q106 0 191-16t149.5-49 99.5-86.5 35-124.5q0-82-53.5-138T898 710z"/><glyph glyph-name="acute" unicode="´" vert-adv-y="1980" d="M634 1187H466q-17 0-24 9t0 25l120 252q11 24 34 24h168q17 0 24-9t0-25l-120-252q-11-24-34-24z"/><glyph glyph-name="uni00B5" unicode="µ" vert-adv-y="1980" d="M864 990h192q14 0 22-8t8-22V30q0-14-8-22t-22-8H872q-28 0-30 30l-8 143h-31Q765 88 687.5 34T500-20q-54 0-104 14v-344q0-14-8-22t-22-8H174q-14 0-22 8t-8 22V960q0 14 8 22t22 8h192q14 0 22-8t8-22V446q0-108 57.5-170.5T615 213q103 0 161 62.5T834 446v514q0 14 8 22t22 8z"/><glyph glyph-name="paragraph" unicode="¶" vert-adv-y="1980" d="M487 1400h286q13 0 21.5-8t8.5-22V-350q0-14-8.5-22t-21.5-8H599q-13 0-21.5 8t-8.5 22v835h-82q-117 0-196 29t-123.5 89.5-63 141.5T86 943q0 116 18.5 197t63 141.5T291 1371t196 29zm453 0h175q13 0 21.5-8t8.5-22V-350q0-14-8.5-22t-21.5-8H940q-14 0-22 8t-8 22v1720q0 14 8 22t22 8z"/><glyph glyph-name="periodcentered" unicode="·" vert-adv-y="1980" d="M615 421q-81 0-139 57.5T418 618q0 81 58 138.5T615 814t139-57.5T812 618q0-82-58-139.5T615 421z"/><glyph glyph-name="cedilla" unicode="¸" vert-adv-y="1980" d="M699 0l-75-69q72-6 124.5-49T801-232q0-84-52.5-135.5T620-433t-164 1q-18 3-18 22v88q0 10 6 15.5t16 4.5q79-12 123.5 5t44.5 53q0 21-22.5 36.5t-59.5 18-84-16.5q-10-4-17-.5t-7 14.5v91q0 14 10 24l80 77h171z"/><glyph glyph-name="uni00B9" unicode="¹" vert-adv-y="1980" d="M781 416h254q13 0 21.5-8t8.5-22V240q0-14-8.5-22t-21.5-8H195q-13 0-21.5 8t-8.5 22v146q0 14 8.5 22t21.5 8h334v533Q411 834 225 834q-30 0-30 28v165q0 32 30 32 160 0 304 131h222q13 0 21.5-8t8.5-22V416z"/><glyph glyph-name="ordmasculine" unicode="º" vert-adv-y="1980" d="M615 682q-151 0-257.5 106T251 1046t106.5 258T615 1410t257.5-106T979 1046 872.5 788 615 682zm0 178q78 0 132.5 54t54.5 132q0 79-54.5 133T615 1233t-132-54-54-133 54-132.5T615 860z"/><glyph glyph-name="guillemotright" unicode="»" vert-adv-y="1980" d="M359 562L107 944q-10 16-4 26t24 10h198q25 0 36-20l250-378q14-20 0-40L361 164q-11-20-36-20H127q-18 0-24 10t4 26zm512 0L619 944q-10 16-4 26t24 10h198q25 0 36-20l250-378q14-20 0-40L873 164q-11-20-36-20H639q-18 0-24 10t4 26z"/><glyph glyph-name="onequarter" unicode="¼" vert-adv-y="1980" d="M1034 788H194q-30 0-30 25v121q0 25 30 25h333v441q-117-95-303-95-30 0-30 23v137q0 26 30 26 161 0 303 109h222q30 0 30-25V959h255q30 0 30-25V813q0-25-30-25zM45 699h1140q13 0 21.5-8.5t8.5-21.5V555q0-13-8.5-21.5T1185 525H45q-13 0-21.5 8.5T15 555v114q0 13 8.5 21.5T45 699zM975 66h138q30 0 30-26V-86q0-26-30-26H975v-242q0-26-30-26H753q-30 0-30 26v242H115q-30 0-30 26v527q0 11 8.5 18.5T115 467h192q13 0 21.5-7.5T337 441V66h386v375q0 11 8.5 18.5T753 467h192q13 0 21.5-7.5T975 441V66z"/><glyph glyph-name="onehalf" unicode="½" vert-adv-y="1980" d="M1044 788H204q-30 0-30 25v121q0 25 30 25h334v441q-117-95-304-95-30 0-30 23v137q0 26 30 26 162 0 304 109h222q30 0 30-25V959h254q30 0 30-25V813q0-25-30-25zM45 699h1140q13 0 21.5-8.5t8.5-21.5V555q0-13-8.5-21.5T1185 525H45q-13 0-21.5 8.5T15 555v114q0 13 8.5 21.5T45 699zm400-913h618q30 0 30-25v-116q0-25-30-25H175q-30 0-30 25v77q0 65 30 116t79.5 82T367-24t129 38.5T625 44t112.5 29.5 79.5 37 30 54.5q0 49-53 72t-163 23q-123 0-187-29t-73-98q-3-26-34-23l-173 16q-29 3-29 27 0 143 129 215.5T619 441q214 0 342.5-73T1090 165q0-58-35.5-101.5T962-6 836-52 698.5-87 573-117.5 480.5-157 445-214z"/><glyph glyph-name="threequarters" unicode="¾" vert-adv-y="1980" d="M887 1203q122-24 182-68.5t60-127.5q0-240-518-240-100 0-174.5 6T296 795t-107.5 43-65.5 70-24 102q0 24 29 27l182 16q31 3 34-23 5-50 66.5-68.5T603 943q132 0 194.5 19t62.5 65q0 35-29 56t-104.5 32-207.5 11q-30 0-30 25v80q0 26 32 26 134 0 204 8.5t97 26 27 51.5q0 91-237 91-116 0-181.5-24t-71.5-87q-3-26-33-23l-183 16q-29 3-29 27 0 142 131 204t372 62q143 0 247-23t166.5-75.5T1093 1380q0-68-53.5-114T887 1203zM45 699h1140q13 0 21.5-8.5t8.5-21.5V555q0-13-8.5-21.5T1185 525H45q-13 0-21.5 8.5T15 555v114q0 13 8.5 21.5T45 699zm719-232h192q13 0 21.5-7.5T986 441V66h139q30 0 30-26V-86q0-26-30-26H986v-242q0-26-30-26H764q-30 0-30 26v242H127q-30 0-30 26v527q0 11 8.5 18.5T127 467h192q13 0 21.5-7.5T349 441V66h385v375q0 11 8.5 18.5T764 467z"/><glyph glyph-name="questiondown" unicode="¿" vert-adv-y="1980" d="M624 1014q77 0 132-55t55-133-55-132.5T624 639t-132 54.5T437 826t55 133 132 55zm-88-474h185q30 0 30-33 0-75-20.5-131.5t-53.5-89-73-56.5-79.5-42.5T452 149t-53.5-53T378 18q0-76 56.5-119.5T607-145q242 0 250 200 1 28 34 28h175q29 0 29-32 0-205-127.5-314.5T611-373q-219 0-347.5 100.5T135 16q0 71 20 124.5t52 86 70.5 58 77.5 46 72 42.5 54.5 56.5T505 509q1 31 31 31z"/><glyph glyph-name="Agrave" unicode="À" vert-adv-y="1980" d="M492 1571l-120 252q-7 16 0 25t24 9h168q23 0 34-24l120-252q7-16 0-25t-24-9H526q-23 0-34 24zm320-255L1162 34q8-34-24-34H934q-29 0-34 24l-60 237H390L330 24q-5-24-34-24H93Q59 0 69 34l349 1282q8 24 35 24h324q27 0 35-24zm-215-246L447 484h336l-150 586h-36z"/><glyph glyph-name="Aacute" unicode="Á" vert-adv-y="1980" d="M706 1547H538q-17 0-24 9t0 25l120 252q11 24 34 24h168q17 0 24-9t0-25l-120-252q-11-24-34-24zm106-231L1162 34q8-34-24-34H934q-29 0-34 24l-60 237H390L330 24q-5-24-34-24H93Q59 0 69 34l349 1282q8 24 35 24h324q27 0 35-24zm-215-246L447 484h336l-150 586h-36z"/><glyph glyph-name="Acircumflex" unicode="Â" vert-adv-y="1980" d="M438 1541H245q-19 0-24.5 11t6.5 25l223 264q14 16 36 16h258q22 0 36-16l223-264q12-14 6.5-25t-24.5-11H792q-23 0-36 16l-141 161-141-161q-13-16-36-16zm374-225L1162 34q8-34-24-34H934q-29 0-34 24l-60 237H390L330 24q-5-24-34-24H93Q59 0 69 34l349 1282q8 24 35 24h324q27 0 35-24zm-215-246L447 484h336l-150 586h-36z"/><glyph glyph-name="Atilde" unicode="Ã" vert-adv-y="1980" d="M346 1638h-94q-21 0-19 26 0 98 62.5 147.5T444 1861q56 0 105-23t78-50 67-50 75-23q68 0 92 60 6 16 22 16h94q21 0 21-20-1-52-19.5-92t-49.5-63.5-67.5-35.5-77.5-12q-46 0-85.5 15t-68 36.5-54.5 43-55.5 36.5-60.5 15q-36 0-59-17.5t-33-41.5q-6-17-22-17zm466-322L1162 34q8-34-24-34H934q-29 0-34 24l-60 237H390L330 24q-5-24-34-24H93Q59 0 69 34l349 1282q8 24 35 24h324q27 0 35-24zm-215-246L447 484h336l-150 586h-36z"/><glyph glyph-name="Adieresis" unicode="Ä" vert-adv-y="1980" d="M402 1598q-53 0-90.5 38t-37.5 93q0 53 37.5 90.5T402 1857t91-37.5 38-90.5q0-55-37.5-93t-91.5-38zm426 0q-53 0-91 38t-38 93q0 53 38 90.5t91 37.5 91-37.5 38-90.5q0-55-38-93t-91-38zm-16-282L1162 34q8-34-24-34H934q-29 0-34 24l-60 237H390L330 24q-5-24-34-24H93Q59 0 69 34l349 1282q8 24 35 24h324q27 0 35-24zm-215-246L447 484h336l-150 586h-36z"/><glyph glyph-name="Aring" unicode="Å" vert-adv-y="1980" d="M615 1463q-84 0-142 58t-58 139 57.5 139 142.5 58q83 0 140.5-58t57.5-139q0-80-57.5-138.5T615 1463zm0 260q-28 0-46-17t-18-45 18-45 46-17q27 0 46 17.5t18 44.5q-1 28-19.5 45t-44.5 17zm197-407L1162 34q8-34-24-34H934q-29 0-34 24l-60 237H390L330 24q-5-24-34-24H93Q59 0 69 34l349 1282q8 24 35 24h324q27 0 35-24zm-215-246L447 484h336l-150 586h-36z"/><glyph glyph-name="AE" unicode="Æ" vert-adv-y="1980" d="M861 232h303q14 0 22-8t8-22V30q0-14-8-22t-22-8H639q-13 0-21.5 8T609 30v145H345L291 24q-8-24-34-24H65Q48 0 41.5 9.5T41 34l491 1282q9 24 34 24h596q14 0 22-8t8-22v-172q0-14-8-22t-22-8H861V810h260q13 0 21.5-8t8.5-22V607q0-13-8.5-21.5T1121 577H861V232zM609 914L425 398h184v516z"/><glyph glyph-name="Ccedilla" unicode="Ç" vert-adv-y="1980" d="M910 456h183q30 0 28-32-12-228-124-335.5T679-29l-44-40q72-6 124.5-49T812-232q0-84-52.5-135.5T631-433t-164 1q-18 3-18 22v88q0 10 6 15.5t16 4.5q79-12 123.5 5t44.5 53q0 21-22.5 36.5t-59.5 18-84-16.5q-11-4-17.5-.5T449-192v91q0 14 10 24l57 55Q301 9 204.5 172T108 665q0 370 122.5 532.5T632 1360q114 0 198-25.5t148.5-83.5 100-157.5T1121 851q2-33-28-33H910q-29 0-32 26-9 81-30 135t-54.5 82-71.5 38.5-91 10.5q-69 0-116-18.5t-83.5-67-53.5-137T361 665t17-222.5 53.5-137 83.5-67T631 220q111 0 170 45.5T878 430q3 26 32 26z"/><glyph glyph-name="Egrave" unicode="È" vert-adv-y="1980" d="M694 1547H526q-23 0-34 24l-120 252q-7 16 0 25t24 9h168q23 0 34-24l120-252q7-16 0-25t-24-9zM1044 0H187q-13 0-21.5 8T157 30v1280q0 14 8.5 22t21.5 8h855q14 0 22-8t8-22v-172q0-14-8-22t-22-8H418V791h579q13 0 21.5-8.5t8.5-21.5V589q0-13-8.5-21.5T997 559H418V232h626q14 0 22-8t8-22V30q0-14-8-22t-22-8z"/><glyph glyph-name="Eacute" unicode="É" vert-adv-y="1980" d="M706 1547H538q-17 0-24 9t0 25l120 252q11 24 34 24h168q17 0 24-9t0-25l-120-252q-11-24-34-24zM1044 0H187q-13 0-21.5 8T157 30v1280q0 14 8.5 22t21.5 8h855q14 0 22-8t8-22v-172q0-14-8-22t-22-8H418V791h579q13 0 21.5-8.5t8.5-21.5V589q0-13-8.5-21.5T997 559H418V232h626q14 0 22-8t8-22V30q0-14-8-22t-22-8z"/><glyph glyph-name="Ecircumflex" unicode="Ê" vert-adv-y="1980" d="M438 1541H245q-19 0-24.5 11t6.5 25l223 264q14 16 36 16h258q22 0 36-16l223-264q12-14 6.5-25t-24.5-11H792q-23 0-36 16l-141 161-141-161q-13-16-36-16zM1044 0H187q-13 0-21.5 8T157 30v1280q0 14 8.5 22t21.5 8h855q14 0 22-8t8-22v-172q0-14-8-22t-22-8H418V791h579q13 0 21.5-8.5t8.5-21.5V589q0-13-8.5-21.5T997 559H418V232h626q14 0 22-8t8-22V30q0-14-8-22t-22-8z"/><glyph glyph-name="Edieresis" unicode="Ë" vert-adv-y="1980" d="M402 1598q-53 0-90.5 38t-37.5 93q0 53 37.5 90.5T402 1857t91-37.5 38-90.5q0-55-37.5-93t-91.5-38zm426 0q-53 0-91 38t-38 93q0 53 38 90.5t91 37.5 91-37.5 38-90.5q0-55-38-93t-91-38zM1044 0H187q-13 0-21.5 8T157 30v1280q0 14 8.5 22t21.5 8h855q14 0 22-8t8-22v-172q0-14-8-22t-22-8H418V791h579q13 0 21.5-8.5t8.5-21.5V589q0-13-8.5-21.5T997 559H418V232h626q14 0 22-8t8-22V30q0-14-8-22t-22-8z"/><glyph glyph-name="Igrave" unicode="Ì" vert-adv-y="1980" d="M694 1547H526q-23 0-34 24l-120 252q-7 16 0 25t24 9h168q23 0 34-24l120-252q7-16 0-25t-24-9zM1069 0H161q-13 0-21.5 8T131 30v172q0 14 8.5 22t21.5 8h323v876H161q-13 0-21.5 8t-8.5 22v172q0 14 8.5 22t21.5 8h908q13 0 21.5-8t8.5-22v-172q0-14-8.5-22t-21.5-8H746V232h323q13 0 21.5-8t8.5-22V30q0-14-8.5-22T1069 0z"/><glyph glyph-name="Iacute" unicode="Í" vert-adv-y="1980" d="M706 1547H538q-17 0-24 9t0 25l120 252q11 24 34 24h168q17 0 24-9t0-25l-120-252q-11-24-34-24zM1069 0H161q-13 0-21.5 8T131 30v172q0 14 8.5 22t21.5 8h323v876H161q-13 0-21.5 8t-8.5 22v172q0 14 8.5 22t21.5 8h908q13 0 21.5-8t8.5-22v-172q0-14-8.5-22t-21.5-8H746V232h323q13 0 21.5-8t8.5-22V30q0-14-8.5-22T1069 0z"/><glyph glyph-name="Icircumflex" unicode="Î" vert-adv-y="1980" d="M438 1541H245q-19 0-24.5 11t6.5 25l223 264q14 16 36 16h258q22 0 36-16l223-264q12-14 6.5-25t-24.5-11H792q-23 0-36 16l-141 161-141-161q-13-16-36-16zM1069 0H161q-13 0-21.5 8T131 30v172q0 14 8.5 22t21.5 8h323v876H161q-13 0-21.5 8t-8.5 22v172q0 14 8.5 22t21.5 8h908q13 0 21.5-8t8.5-22v-172q0-14-8.5-22t-21.5-8H746V232h323q13 0 21.5-8t8.5-22V30q0-14-8.5-22T1069 0z"/><glyph glyph-name="Idieresis" unicode="Ï" vert-adv-y="1980" d="M402 1598q-53 0-90.5 38t-37.5 93q0 53 37.5 90.5T402 1857t91-37.5 38-90.5q0-55-37.5-93t-91.5-38zm426 0q-53 0-91 38t-38 93q0 53 38 90.5t91 37.5 91-37.5 38-90.5q0-55-38-93t-91-38zM1069 0H161q-13 0-21.5 8T131 30v172q0 14 8.5 22t21.5 8h323v876H161q-13 0-21.5 8t-8.5 22v172q0 14 8.5 22t21.5 8h908q13 0 21.5-8t8.5-22v-172q0-14-8.5-22t-21.5-8H746V232h323q13 0 21.5-8t8.5-22V30q0-14-8.5-22T1069 0z"/><glyph glyph-name="Eth" unicode="Ð" vert-adv-y="1980" d="M176 1340h420q129 0 226.5-33t160.5-90 103-143 56-184 16-220-16-220-56-184-103-143-160.5-90T596 0H176q-14 0-22 8t-8 22v541H87q-13 0-21.5 8.5T57 601v138q0 13 8.5 21.5T87 769h59v541q0 14 8 22t22 8zM407 232h179q76 0 130.5 20t88.5 55 54 91.5 27 120 7 151.5-7 151.5-27 120-54 91.5-88.5 55-130.5 20H407V769h214q13 0 21.5-8.5T651 739V601q0-13-8.5-21.5T621 571H407V232z"/><glyph glyph-name="Ntilde" unicode="Ñ" vert-adv-y="1980" d="M346 1638h-94q-21 0-19 26 0 98 62.5 147.5T444 1861q56 0 105-23t78-50 67-50 75-23q68 0 92 60 6 16 22 16h94q21 0 21-20-1-52-19.5-92t-49.5-63.5-67.5-35.5-77.5-12q-46 0-85.5 15t-68 36.5-54.5 43-55.5 36.5-60.5 15q-36 0-59-17.5t-33-41.5q-6-17-22-17zm532-298h175q13 0 21.5-8t8.5-22V30q0-14-8.5-22T1053 0H825q-27 0-36 20L382 923V30q0-14-8-22t-22-8H177q-13 0-21.5 8T147 30v1280q0 14 8.5 22t21.5 8h229q27 0 36-20l406-902v892q0 14 8 22t22 8z"/><glyph glyph-name="Ograve" unicode="Ò" vert-adv-y="1980" d="M694 1547H526q-23 0-34 24l-120 252q-7 16 0 25t24 9h168q23 0 34-24l120-252q7-16 0-25t-24-9zM615-30q-267 0-387 163T108 665t120 532 387 163 387-163 120-532-120-532T615-30zm0 250q50 0 87 11t70 40.5 53.5 79.5 32 128.5T869 665t-11.5 185.5-32 128.5-53.5 79.5-70 40.5-87 11-87-11-70-40.5-53.5-79.5-32-128.5T361 665t11.5-185.5 32-128.5 53.5-79.5 70-40.5 87-11z"/><glyph glyph-name="Oacute" unicode="Ó" vert-adv-y="1980" d="M706 1547H538q-17 0-24 9t0 25l120 252q11 24 34 24h168q17 0 24-9t0-25l-120-252q-11-24-34-24zM615-30q-267 0-387 163T108 665t120 532 387 163 387-163 120-532-120-532T615-30zm0 250q50 0 87 11t70 40.5 53.5 79.5 32 128.5T869 665t-11.5 185.5-32 128.5-53.5 79.5-70 40.5-87 11-87-11-70-40.5-53.5-79.5-32-128.5T361 665t11.5-185.5 32-128.5 53.5-79.5 70-40.5 87-11z"/><glyph glyph-name="Ocircumflex" unicode="Ô" vert-adv-y="1980" d="M438 1541H245q-19 0-24.5 11t6.5 25l223 264q14 16 36 16h258q22 0 36-16l223-264q12-14 6.5-25t-24.5-11H792q-23 0-36 16l-141 161-141-161q-13-16-36-16zM615-30q-267 0-387 163T108 665t120 532 387 163 387-163 120-532-120-532T615-30zm0 250q50 0 87 11t70 40.5 53.5 79.5 32 128.5T869 665t-11.5 185.5-32 128.5-53.5 79.5-70 40.5-87 11-87-11-70-40.5-53.5-79.5-32-128.5T361 665t11.5-185.5 32-128.5 53.5-79.5 70-40.5 87-11z"/><glyph glyph-name="Otilde" unicode="Õ" vert-adv-y="1980" d="M784 1568q-46 0-85.5 15t-68 36.5-54.5 43-55.5 36.5-60.5 15q-36 0-59-17.5t-33-41.5q-6-17-22-17h-94q-21 0-19 26 0 98 62.5 147.5T444 1861q56 0 105-23t78-50 67-50 75-23q68 0 92 60 6 16 22 16h94q21 0 21-20-1-52-19.5-92t-49.5-63.5-67.5-35.5-77.5-12zM615-30q-267 0-387 163T108 665t120 532 387 163 387-163 120-532-120-532T615-30zm0 250q50 0 87 11t70 40.5 53.5 79.5 32 128.5T869 665t-11.5 185.5-32 128.5-53.5 79.5-70 40.5-87 11-87-11-70-40.5-53.5-79.5-32-128.5T361 665t11.5-185.5 32-128.5 53.5-79.5 70-40.5 87-11z"/><glyph glyph-name="Odieresis" unicode="Ö" vert-adv-y="1980" d="M402 1598q-53 0-90.5 38t-37.5 93q0 53 37.5 90.5T402 1857t91-37.5 38-90.5q0-55-37.5-93t-91.5-38zm426 0q-53 0-91 38t-38 93q0 53 38 90.5t91 37.5 91-37.5 38-90.5q0-55-38-93t-91-38zM615-30q-267 0-387 163T108 665t120 532 387 163 387-163 120-532-120-532T615-30zm0 250q50 0 87 11t70 40.5 53.5 79.5 32 128.5T869 665t-11.5 185.5-32 128.5-53.5 79.5-70 40.5-87 11-87-11-70-40.5-53.5-79.5-32-128.5T361 665t11.5-185.5 32-128.5 53.5-79.5 70-40.5 87-11z"/><glyph glyph-name="multiply" unicode="×" vert-adv-y="1980" d="M1053 961L749 657l304-304q21-21 0-43l-91-91q-21-21-42 0L615 523 311 219q-21-21-43 0l-91 91q-21 22 0 43l304 304-304 304q-21 21 0 43l91 91q22 21 43 0l304-304 305 304q20 22 42 0l91-91q21-22 0-43z"/><glyph glyph-name="Oslash" unicode="Ø" vert-adv-y="1980" d="M1096 1424l-107-209q133-164 133-550 0-369-120-532T615-30q-145 0-242 45l-63-123q-11-22-34-22H156q-17 0-23.5 10t1.5 26l108 210Q108 278 108 665q0 369 120 532t387 163q145 0 242-45l63 123q11 22 34 22h120q17 0 23.5-10t-1.5-26zM361 665q0-167 27-264l350 682q-47 27-123 27-50 0-87-11t-70-40.5-53.5-79.5-32-128.5T361 665zm254-445q50 0 87 11t70 40.5 53.5 79.5 32 128.5T869 665q0 167-27 264L492 247q47-27 123-27z"/><glyph glyph-name="Ugrave" unicode="Ù" vert-adv-y="1980" d="M694 1547H526q-23 0-34 24l-120 252q-7 16 0 25t24 9h168q23 0 34-24l120-252q7-16 0-25t-24-9zM615-30Q378-30 253 91.5T128 454v856q0 14 8 22t22 8h201q13 0 21.5-8t8.5-22V475q0-123 57-189t169-66 169 66 57 189v835q0 14 8.5 22t21.5 8h201q14 0 22-8t8-22V454q0-241-125-362.5T615-30z"/><glyph glyph-name="Uacute" unicode="Ú" vert-adv-y="1980" d="M706 1547H538q-17 0-24 9t0 25l120 252q11 24 34 24h168q17 0 24-9t0-25l-120-252q-11-24-34-24zM615-30Q378-30 253 91.5T128 454v856q0 14 8 22t22 8h201q13 0 21.5-8t8.5-22V475q0-123 57-189t169-66 169 66 57 189v835q0 14 8.5 22t21.5 8h201q14 0 22-8t8-22V454q0-241-125-362.5T615-30z"/><glyph glyph-name="Ucircumflex" unicode="Û" vert-adv-y="1980" d="M438 1541H245q-19 0-24.5 11t6.5 25l223 264q14 16 36 16h258q22 0 36-16l223-264q12-14 6.5-25t-24.5-11H792q-23 0-36 16l-141 161-141-161q-13-16-36-16zM615-30Q378-30 253 91.5T128 454v856q0 14 8 22t22 8h201q13 0 21.5-8t8.5-22V475q0-123 57-189t169-66 169 66 57 189v835q0 14 8.5 22t21.5 8h201q14 0 22-8t8-22V454q0-241-125-362.5T615-30z"/><glyph glyph-name="Udieresis" unicode="Ü" vert-adv-y="1980" d="M402 1598q-53 0-90.5 38t-37.5 93q0 53 37.5 90.5T402 1857t91-37.5 38-90.5q0-55-37.5-93t-91.5-38zm426 0q-53 0-91 38t-38 93q0 53 38 90.5t91 37.5 91-37.5 38-90.5q0-55-38-93t-91-38zM615-30Q378-30 253 91.5T128 454v856q0 14 8 22t22 8h201q13 0 21.5-8t8.5-22V475q0-123 57-189t169-66 169 66 57 189v835q0 14 8.5 22t21.5 8h201q14 0 22-8t8-22V454q0-241-125-362.5T615-30z"/><glyph glyph-name="Yacute" unicode="Ý" vert-adv-y="1980" d="M706 1547H538q-17 0-24 9t0 25l120 252q11 24 34 24h168q17 0 24-9t0-25l-120-252q-11-24-34-24zm223-207h212q18 0 23.5-10t-3.5-26L746 518V30q0-14-8-22t-22-8H514q-14 0-22 8t-8 22v492L69 1304q-9 16-3.5 26t23.5 10h213q25 0 36-20l277-553 278 553q10 20 36 20z"/><glyph glyph-name="Thorn" unicode="Þ" vert-adv-y="1980" d="M365 1124h258q243 0 373-120t130-334-130-334-373-120H365V30q0-14-8.5-22T335 0H134q-14 0-22 8t-8 22v1280q0 14 8 22t22 8h201q13 0 21.5-8t8.5-22v-186zm0-676h239q131 0 201 50t70 172-70 172-201 50H365V448z"/><glyph glyph-name="germandbls" unicode="ß" vert-adv-y="1980" d="M877 752q0-28 16.5-53t42.5-45.5 57.5-42 63.5-48 58-58 42.5-78T1174 325q0-154-120-239.5T706 0H605q-13 0-21.5 8T575 30v138q0 14 8.5 22t21.5 8h81q236 0 236 145 0 52-30.5 94.5T818 510l-86 60-73.5 71-30.5 91q0 39 19.5 75t43.5 60.5 43.5 65T754 1021q0 151-174 151-91 0-134-45t-43-141V30q0-14-8.5-22T373 0H181q-13 0-21.5 8T151 30v706H52q-14 0-22 8t-8 22v144q0 14 8 22t22 8h99v59q0 195 115 298t317 103q193 0 307.5-90.5T1005 1058q0-52-13-94t-32-68.5-38-49-32-46-13-48.5z"/><glyph glyph-name="agrave" unicode="à" vert-adv-y="1980" d="M501 1221l-120 252q-7 16 0 25t24 9h168q23 0 34-24l120-252q7-16 0-25t-24-9H535q-23 0-34 24zm587-1049q15-11 22-17.5t12-19.5 5-31V70q0-85-115-85-78 0-129.5 44.5T831 160v21h-16Q785 94 701 34.5T483-25h-50q-148 0-233 77.5T115 271q0 267 312 287l377 25v53q0 98-43.5 134.5T603 807q-97 0-144.5-24T403 701q-3-21-28-21H193q-31 0-29 30 7 300 445 300 164 0 262.5-44t139-126 40.5-213V289q0-56 8.5-79t28.5-38zm-567-5h30q66 0 121.5 20t93.5 66.5T804 366v59l-315-23q-129-10-129-115 0-120 161-120z"/><glyph glyph-name="aacute" unicode="á" vert-adv-y="1980" d="M715 1197H547q-17 0-24 9t0 25l120 252q11 24 34 24h168q17 0 24-9t0-25l-120-252q-11-24-34-24zm373-1025q15-11 22-17.5t12-19.5 5-31V70q0-85-115-85-78 0-129.5 44.5T831 160v21h-16Q785 94 701 34.5T483-25h-50q-148 0-233 77.5T115 271q0 267 312 287l377 25v53q0 98-43.5 134.5T603 807q-97 0-144.5-24T403 701q-3-21-28-21H193q-31 0-29 30 7 300 445 300 164 0 262.5-44t139-126 40.5-213V289q0-56 8.5-79t28.5-38zm-567-5h30q66 0 121.5 20t93.5 66.5T804 366v59l-315-23q-129-10-129-115 0-120 161-120z"/><glyph glyph-name="acircumflex" unicode="â" vert-adv-y="1980" d="M447 1191H254q-19 0-24.5 11t6.5 25l223 264q14 16 36 16h258q22 0 36-16l223-264q12-14 6.5-25t-24.5-11H801q-23 0-36 16l-141 161-141-161q-13-16-36-16zm641-1019q15-11 22-17.5t12-19.5 5-31V70q0-85-115-85-78 0-129.5 44.5T831 160v21h-16Q785 94 701 34.5T483-25h-50q-148 0-233 77.5T115 271q0 267 312 287l377 25v53q0 98-43.5 134.5T603 807q-97 0-144.5-24T403 701q-3-21-28-21H193q-31 0-29 30 7 300 445 300 164 0 262.5-44t139-126 40.5-213V289q0-56 8.5-79t28.5-38zm-567-5h30q66 0 121.5 20t93.5 66.5T804 366v59l-315-23q-129-10-129-115 0-120 161-120z"/><glyph glyph-name="atilde" unicode="ã" vert-adv-y="1980" d="M356 1288h-94q-21 0-19 26 0 98 62.5 147.5T454 1511q56 0 105-23t78-50 67-50 75-23q68 0 92 60 6 16 22 16h94q21 0 21-20-1-52-19.5-92t-49.5-63.5-67.5-35.5-77.5-12q-46 0-85.5 15t-68 36.5-54.5 43-55.5 36.5-60.5 15q-36 0-59-17.5t-33-41.5q-6-17-22-17zm732-1116q15-11 22-17.5t12-19.5 5-31V70q0-85-115-85-78 0-129.5 44.5T831 160v21h-16Q785 94 701 34.5T483-25h-50q-148 0-233 77.5T115 271q0 267 312 287l377 25v53q0 98-43.5 134.5T603 807q-97 0-144.5-24T403 701q-3-21-28-21H193q-31 0-29 30 7 300 445 300 164 0 262.5-44t139-126 40.5-213V289q0-56 8.5-79t28.5-38zm-567-5h30q66 0 121.5 20t93.5 66.5T804 366v59l-315-23q-129-10-129-115 0-120 161-120z"/><glyph glyph-name="adieresis" unicode="ä" vert-adv-y="1980" d="M411 1248q-53 0-90.5 38t-37.5 93q0 53 37.5 90.5T411 1507t91-37.5 38-90.5q0-55-37.5-93t-91.5-38zm426 0q-53 0-91 38t-38 93q0 53 38 90.5t91 37.5 91-37.5 38-90.5q0-55-38-93t-91-38zm251-1076q15-11 22-17.5t12-19.5 5-31V70q0-85-115-85-78 0-129.5 44.5T831 160v21h-16Q785 94 701 34.5T483-25h-50q-148 0-233 77.5T115 271q0 267 312 287l377 25v53q0 98-43.5 134.5T603 807q-97 0-144.5-24T403 701q-3-21-28-21H193q-31 0-29 30 7 300 445 300 164 0 262.5-44t139-126 40.5-213V289q0-56 8.5-79t28.5-38zm-567-5h30q66 0 121.5 20t93.5 66.5T804 366v59l-315-23q-129-10-129-115 0-120 161-120z"/><glyph glyph-name="aring" unicode="å" vert-adv-y="1980" d="M625 1113q-84 0-142 58t-58 139 57.5 139 142.5 58q83 0 140.5-58t57.5-139q0-80-57.5-138.5T625 1113zm0 260q-28 0-46-17t-18-45 18-45 46-17q27 0 46 17.5t18 44.5q-1 28-19.5 45t-44.5 17zm463-1201q15-11 22-17.5t12-19.5 5-31V70q0-85-115-85-78 0-129.5 44.5T831 160v21h-16Q785 94 701 34.5T483-25h-50q-148 0-233 77.5T115 271q0 267 312 287l377 25v53q0 98-43.5 134.5T603 807q-97 0-144.5-24T403 701q-3-21-28-21H193q-31 0-29 30 7 300 445 300 164 0 262.5-44t139-126 40.5-213V289q0-56 8.5-79t28.5-38zm-567-5h30q66 0 121.5 20t93.5 66.5T804 366v59l-315-23q-129-10-129-115 0-120 161-120z"/><glyph glyph-name="ae" unicode="æ" vert-adv-y="1980" d="M903 170q93 0 171 73l100-120Q1070-26 886-26q-193 0-277 164Q502-26 325-26q-122 0-201 77.5T45 274q0 131 70.5 211T335 565h191v85q0 86-33 123.5T392 811q-121 0-128-116-2-24-27-24H115q-14 0-22.5 8.5T85 703q6 164 86 236.5t222 72.5q182 0 244-123 83 123 233 123 70 0 124-26t89.5-71 59-109.5 33-137T1185 509q0-61-16.5-81.5T1095 407H702q9-115 55-176t146-61zm-43 641q-77 0-114-62.5T701 565h299q0 124-33 185t-107 61zM526 292v115H370q-129 0-129-115 0-52 29-83t89-31q122 0 167 114z"/><glyph glyph-name="ccedilla" unicode="ç" vert-adv-y="1980" d="M925 330l134-91q25-17 9-40-54-86-141-143T730-19l-55-50q72-6 124.5-49T852-232q0-84-52.5-135.5T671-433t-164 1q-18 3-18 22v88q0 10 6 15.5t16 4.5q79-12 123.5 5t44.5 53q0 21-22.5 36.5t-59.5 18-84-16.5q-11-4-17.5-.5T489-192v91q0 14 10 24l60 58Q368 9 247.5 150T127 493q0 224 147 370.5T644 1010q139 0 249-60.5T1068 786q16-23-10-41l-133-90q-22-15-40 8-89 113-233 113-121 0-200.5-78.5T372 493t79.5-205T652 209q144 0 233 113 18 23 40 8z"/><glyph glyph-name="egrave" unicode="è" vert-adv-y="1980" d="M492 1221l-120 252q-7 16 0 25t24 9h168q23 0 34-24l120-252q7-16 0-25t-24-9H526q-23 0-34 24zm616-699q0-54-17-76.5t-73-22.5l-655 1q8-118 93-183t223-65q128 0 231 56 23 13 41 7t44-39q30-37 32.5-58T1006 96Q950 41 857 8T651-25q-238 0-383.5 143.5T122 494q0 230 140 373t368 143q222 0 350-136t128-352zM631 796q-105 0-172.5-52T372 593h513q-14 100-81 152t-173 51z"/><glyph glyph-name="eacute" unicode="é" vert-adv-y="1980" d="M706 1197H538q-17 0-24 9t0 25l120 252q11 24 34 24h168q17 0 24-9t0-25l-120-252q-11-24-34-24zm402-675q0-54-17-76.5t-73-22.5l-655 1q8-118 93-183t223-65q128 0 231 56 23 13 41 7t44-39q30-37 32.5-58T1006 96Q950 41 857 8T651-25q-238 0-383.5 143.5T122 494q0 230 140 373t368 143q222 0 350-136t128-352zM631 796q-105 0-172.5-52T372 593h513q-14 100-81 152t-173 51z"/><glyph glyph-name="ecircumflex" unicode="ê" vert-adv-y="1980" d="M438 1191H245q-19 0-24.5 11t6.5 25l223 264q14 16 36 16h258q22 0 36-16l223-264q12-14 6.5-25t-24.5-11H792q-23 0-36 16l-141 161-141-161q-13-16-36-16zm670-669q0-54-17-76.5t-73-22.5l-655 1q8-118 93-183t223-65q128 0 231 56 23 13 41 7t44-39q30-37 32.5-58T1006 96Q950 41 857 8T651-25q-238 0-383.5 143.5T122 494q0 230 140 373t368 143q222 0 350-136t128-352zM631 796q-105 0-172.5-52T372 593h513q-14 100-81 152t-173 51z"/><glyph glyph-name="edieresis" unicode="ë" vert-adv-y="1980" d="M402 1248q-53 0-90.5 38t-37.5 93q0 53 37.5 90.5T402 1507t91-37.5 38-90.5q0-55-37.5-93t-91.5-38zm426 0q-53 0-91 38t-38 93q0 53 38 90.5t91 37.5 91-37.5 38-90.5q0-55-38-93t-91-38zm280-726q0-54-17-76.5t-73-22.5l-655 1q8-118 93-183t223-65q128 0 231 56 23 13 41 7t44-39q30-37 32.5-58T1006 96Q950 41 857 8T651-25q-238 0-383.5 143.5T122 494q0 230 140 373t368 143q222 0 350-136t128-352zM631 796q-105 0-172.5-52T372 593h513q-14 100-81 152t-173 51z"/><glyph glyph-name="igrave" unicode="ì" vert-adv-y="1980" d="M482 1221l-120 252q-7 16 0 25t24 9h168q23 0 34-24l120-252q7-16 0-25t-24-9H516q-23 0-34 24zM895 207h153q14 0 22-8.5t8-21.5V30q0-14-8-22t-22-8H796Q650 0 573 81t-77 229v473H187q-13 0-21.5 8.5T157 813v147q0 14 8.5 22t21.5 8h531q14 0 22-8t8-22V356q0-149 147-149z"/><glyph glyph-name="iacute" unicode="í" vert-adv-y="1980" d="M696 1197H528q-17 0-24 9t0 25l120 252q11 24 34 24h168q17 0 24-9t0-25l-120-252q-11-24-34-24zm199-990h153q14 0 22-8.5t8-21.5V30q0-14-8-22t-22-8H796Q650 0 573 81t-77 229v473H187q-13 0-21.5 8.5T157 813v147q0 14 8.5 22t21.5 8h531q14 0 22-8t8-22V356q0-149 147-149z"/><glyph glyph-name="icircumflex" unicode="î" vert-adv-y="1980" d="M428 1191H235q-19 0-24.5 11t6.5 25l223 264q14 16 36 16h258q22 0 36-16l223-264q12-14 6.5-25t-24.5-11H782q-23 0-36 16l-141 161-141-161q-13-16-36-16zm467-984h153q14 0 22-8.5t8-21.5V30q0-14-8-22t-22-8H796Q650 0 573 81t-77 229v473H187q-13 0-21.5 8.5T157 813v147q0 14 8.5 22t21.5 8h531q14 0 22-8t8-22V356q0-149 147-149z"/><glyph glyph-name="idieresis" unicode="ï" vert-adv-y="1980" d="M392 1248q-53 0-90.5 38t-37.5 93q0 53 37.5 90.5T392 1507t91-37.5 38-90.5q0-55-37.5-93t-91.5-38zm426 0q-53 0-91 38t-38 93q0 53 38 90.5t91 37.5 91-37.5 38-90.5q0-55-38-93t-91-38zm77-1041h153q14 0 22-8.5t8-21.5V30q0-14-8-22t-22-8H796Q650 0 573 81t-77 229v473H187q-13 0-21.5 8.5T157 813v147q0 14 8.5 22t21.5 8h531q14 0 22-8t8-22V356q0-149 147-149z"/><glyph glyph-name="eth" unicode="ð" vert-adv-y="1980" d="M1101 1272l71 8q32 3 32-28v-76q0-28-28-31l-75-8V30q0-14-8.5-22T1071 0H903q-26 0-29 30l-15 156h-25Q801 93 718 34T514-25q-192 0-309.5 146T87 489q0 230 129 375.5T563 1010q192 0 286-118v218l-173-19q-32-5-32 27v76q0 29 28 32l177 19v125q0 14 8.5 22t21.5 8h192q13 0 21.5-8t8.5-22v-98zM597 208q120 0 191.5 77T860 493t-71.5 207.5T597 777q-119 0-191.5-77T333 493t72.5-207.5T597 208z"/><glyph glyph-name="ntilde" unicode="ñ" vert-adv-y="1980" d="M346 1288h-94q-21 0-19 26 0 98 62.5 147.5T444 1511q56 0 105-23t78-50 67-50 75-23q68 0 92 60 6 16 22 16h94q21 0 21-20-1-52-19.5-92t-49.5-63.5-67.5-35.5-77.5-12q-46 0-85.5 15t-68 36.5-54.5 43-55.5 36.5-60.5 15q-36 0-59-17.5t-33-41.5q-6-17-22-17zm384-278q160 0 258-112t98-306V30q0-14-8-22t-22-8H864q-14 0-22 8t-8 22v514q0 108-57.5 170.5T615 777q-103 0-161-62.5T396 544V30q0-14-8-22t-22-8H174q-14 0-22 8t-8 22v930q0 14 8 22t22 8h184q28 0 30-30l8-143h31q38 85 115.5 139t187.5 54z"/><glyph glyph-name="ograve" unicode="ò" vert-adv-y="1980" d="M694 1197H526q-23 0-34 24l-120 252q-7 16 0 25t24 9h168q23 0 34-24l120-252q7-16 0-25t-24-9zM615-25q-220 0-364.5 148T106 493q0 221 144.5 369T615 1010t365-148 145-369-145-369.5T615-25zm0 234q115 0 189.5 79T879 493t-74 204.5T615 776t-190-78.5T351 493t74.5-205T615 209z"/><glyph glyph-name="oacute" unicode="ó" vert-adv-y="1980" d="M706 1197H538q-17 0-24 9t0 25l120 252q11 24 34 24h168q17 0 24-9t0-25l-120-252q-11-24-34-24zM615-25q-220 0-364.5 148T106 493q0 221 144.5 369T615 1010t365-148 145-369-145-369.5T615-25zm0 234q115 0 189.5 79T879 493t-74 204.5T615 776t-190-78.5T351 493t74.5-205T615 209z"/><glyph glyph-name="ocircumflex" unicode="ô" vert-adv-y="1980" d="M438 1191H245q-19 0-24.5 11t6.5 25l223 264q14 16 36 16h258q22 0 36-16l223-264q12-14 6.5-25t-24.5-11H792q-23 0-36 16l-141 161-141-161q-13-16-36-16zM615-25q-220 0-364.5 148T106 493q0 221 144.5 369T615 1010t365-148 145-369-145-369.5T615-25zm0 234q115 0 189.5 79T879 493t-74 204.5T615 776t-190-78.5T351 493t74.5-205T615 209z"/><glyph glyph-name="otilde" unicode="õ" vert-adv-y="1980" d="M784 1218q-46 0-85.5 15t-68 36.5-54.5 43-55.5 36.5-60.5 15q-36 0-59-17.5t-33-41.5q-6-17-22-17h-94q-21 0-19 26 0 98 62.5 147.5T444 1511q56 0 105-23t78-50 67-50 75-23q68 0 92 60 6 16 22 16h94q21 0 21-20-1-52-19.5-92t-49.5-63.5-67.5-35.5-77.5-12zM615-25q-220 0-364.5 148T106 493q0 221 144.5 369T615 1010t365-148 145-369-145-369.5T615-25zm0 234q115 0 189.5 79T879 493t-74 204.5T615 776t-190-78.5T351 493t74.5-205T615 209z"/><glyph glyph-name="odieresis" unicode="ö" vert-adv-y="1980" d="M402 1248q-53 0-90.5 38t-37.5 93q0 53 37.5 90.5T402 1507t91-37.5 38-90.5q0-55-37.5-93t-91.5-38zm426 0q-53 0-91 38t-38 93q0 53 38 90.5t91 37.5 91-37.5 38-90.5q0-55-38-93t-91-38zM615-25q-220 0-364.5 148T106 493q0 221 144.5 369T615 1010t365-148 145-369-145-369.5T615-25zm0 234q115 0 189.5 79T879 493t-74 204.5T615 776t-190-78.5T351 493t74.5-205T615 209z"/><glyph glyph-name="divide" unicode="÷" vert-adv-y="1980" d="M615 931q-75 0-128 53t-53 128q0 76 53 128.5t128 52.5 128-52.5 53-128.5q0-75-53-128t-128-53zm469-387H147q-13 0-21.5 8t-8.5 22v129q0 13 8.5 21.5T147 733h937q14 0 22-8.5t8-21.5V574q0-14-8-22t-22-8zM615-17q-75 0-128 53t-53 128q0 76 53 129t128 53 128-53 53-129q0-75-53-128T615-17z"/><glyph glyph-name="oslash" unicode="ø" vert-adv-y="1980" d="M988 1080l-78-159q101-70 158-181.5t57-246.5q0-221-145-369.5T615-25q-82 0-156 23l-57-116q-11-22-34-22H265q-17 0-23.5 10t1.5 26l81 166q-102 69-160 181.5T106 493q0 221 144.5 369T615 1010q83 0 160-23l52 107q11 22 34 22h105q17 0 23.5-10t-1.5-26zM351 493q0-131 80-211l239 489q-30 5-55 5-116 0-190-78.5T351 493zm264-284q115 0 189.5 79T879 493q0 127-77 207L564 213q32-4 51-4z"/><glyph glyph-name="ugrave" unicode="ù" vert-adv-y="1980" d="M492 1221l-120 252q-7 16 0 25t24 9h168q23 0 34-24l120-252q7-16 0-25t-24-9H526q-23 0-34 24zm372-231h192q14 0 22-8t8-22V30q0-14-8-22t-22-8H872q-28 0-30 30l-8 143h-31Q765 88 687.5 34T500-20Q340-20 242 92t-98 306v562q0 14 8 22t22 8h192q14 0 22-8t8-22V446q0-108 57.5-170.5T615 213q103 0 161 62.5T834 446v514q0 14 8 22t22 8z"/><glyph glyph-name="uacute" unicode="ú" vert-adv-y="1980" d="M706 1197H538q-17 0-24 9t0 25l120 252q11 24 34 24h168q17 0 24-9t0-25l-120-252q-11-24-34-24zm158-207h192q14 0 22-8t8-22V30q0-14-8-22t-22-8H872q-28 0-30 30l-8 143h-31Q765 88 687.5 34T500-20Q340-20 242 92t-98 306v562q0 14 8 22t22 8h192q14 0 22-8t8-22V446q0-108 57.5-170.5T615 213q103 0 161 62.5T834 446v514q0 14 8 22t22 8z"/><glyph glyph-name="ucircumflex" unicode="û" vert-adv-y="1980" d="M438 1191H245q-19 0-24.5 11t6.5 25l223 264q14 16 36 16h258q22 0 36-16l223-264q12-14 6.5-25t-24.5-11H792q-23 0-36 16l-141 161-141-161q-13-16-36-16zm426-201h192q14 0 22-8t8-22V30q0-14-8-22t-22-8H872q-28 0-30 30l-8 143h-31Q765 88 687.5 34T500-20Q340-20 242 92t-98 306v562q0 14 8 22t22 8h192q14 0 22-8t8-22V446q0-108 57.5-170.5T615 213q103 0 161 62.5T834 446v514q0 14 8 22t22 8z"/><glyph glyph-name="udieresis" unicode="ü" vert-adv-y="1980" d="M402 1248q-53 0-90.5 38t-37.5 93q0 53 37.5 90.5T402 1507t91-37.5 38-90.5q0-55-37.5-93t-91.5-38zm426 0q-53 0-91 38t-38 93q0 53 38 90.5t91 37.5 91-37.5 38-90.5q0-55-38-93t-91-38zm36-258h192q14 0 22-8t8-22V30q0-14-8-22t-22-8H872q-28 0-30 30l-8 143h-31Q765 88 687.5 34T500-20Q340-20 242 92t-98 306v562q0 14 8 22t22 8h192q14 0 22-8t8-22V446q0-108 57.5-170.5T615 213q103 0 161 62.5T834 446v514q0 14 8 22t22 8z"/><glyph glyph-name="yacute" unicode="ý" vert-adv-y="1980" d="M706 1197H538q-17 0-24 9t0 25l120 252q11 24 34 24h168q17 0 24-9t0-25l-120-252q-11-24-34-24zm205-207h192q17 0 24-9t0-25L603-356q-9-24-36-24H375q-17 0-24 9t0 25L490-3 103 956q-7 16 0 25t24 9h192q27 0 36-24l260-681 260 681q9 24 36 24z"/><glyph glyph-name="thorn" unicode="þ" vert-adv-y="1980" d="M1026 848q115-141 115-359 0-222-117.5-368T714-25h-23q-108 0-181 43T399 134h-27v-484q0-14-8-22t-22-8H157q-13 0-21.5 8t-8.5 22v1720q0 14 8.5 22t21.5 8h192q13 0 21.5-8t8.5-22V893q94 117 285 117h27q213 0 335-162zM368 493q0-130 71-207t190-78q117 1 187.5 78T887 493t-70 206.5T629 777q-119-1-190-77.5T368 493z"/><glyph glyph-name="ydieresis" unicode="ÿ" vert-adv-y="1980" d="M402 1248q-53 0-90.5 38t-37.5 93q0 53 37.5 90.5T402 1507t91-37.5 38-90.5q0-55-37.5-93t-91.5-38zm426 0q-53 0-91 38t-38 93q0 53 38 90.5t91 37.5 91-37.5 38-90.5q0-55-38-93t-91-38zm83-258h192q17 0 24-9t0-25L603-356q-9-24-36-24H375q-17 0-24 9t0 25L490-3 103 956q-7 16 0 25t24 9h192q27 0 36-24l260-681 260 681q9 24 36 24z"/><glyph glyph-name="Amacron" unicode="Ā" vert-adv-y="1980" d="M882 1660H348q-14 0-22 8t-8 22v137q0 13 8 21.5t22 8.5h534q14 0 22-8.5t8-21.5v-137q0-14-8-22t-22-8zm-70-344L1162 34q8-34-24-34H934q-29 0-34 24l-60 237H390L330 24q-5-24-34-24H93Q59 0 69 34l349 1282q8 24 35 24h324q27 0 35-24zm-215-246L447 484h336l-150 586h-36z"/><glyph glyph-name="amacron" unicode="ā" vert-adv-y="1980" d="M891 1310H357q-13 0-21.5 8t-8.5 22v137q0 13 8.5 21.5t21.5 8.5h534q13 0 21.5-8.5t8.5-21.5v-137q0-14-8.5-22t-21.5-8zm197-1138q15-11 22-17.5t12-19.5 5-31V70q0-85-115-85-78 0-129.5 44.5T831 160v21h-16Q785 94 701 34.5T483-25h-50q-148 0-233 77.5T115 271q0 267 312 287l377 25v53q0 98-43.5 134.5T603 807q-97 0-144.5-24T403 701q-3-21-28-21H193q-31 0-29 30 7 300 445 300 164 0 262.5-44t139-126 40.5-213V289q0-56 8.5-79t28.5-38zm-567-5h30q66 0 121.5 20t93.5 66.5T804 366v59l-315-23q-129-10-129-115 0-120 161-120z"/><glyph glyph-name="Abreve" unicode="Ă" vert-adv-y="1980" d="M615 1543q-141 0-226.5 80T291 1826q-3 31 29 31h105q26 0 32-29 12-50 53-85.5t105-35.5 105.5 35.5T773 1828q6 29 32 29h105q33 0 30-31-13-123-98.5-203T615 1543zm197-227L1162 34q8-34-24-34H934q-29 0-34 24l-60 237H390L330 24q-5-24-34-24H93Q59 0 69 34l349 1282q8 24 35 24h324q27 0 35-24zm-215-246L447 484h336l-150 586h-36z"/><glyph glyph-name="abreve" unicode="ă" vert-adv-y="1980" d="M624 1193q-141 0-226.5 80T300 1476q-3 31 29 31h105q26 0 32-29 12-50 53-85.5t105-35.5 105.5 35.5T782 1478q6 29 32 29h105q33 0 30-31-13-123-98.5-203T624 1193zm464-1021q15-11 22-17.5t12-19.5 5-31V70q0-85-115-85-78 0-129.5 44.5T831 160v21h-16Q785 94 701 34.5T483-25h-50q-148 0-233 77.5T115 271q0 267 312 287l377 25v53q0 98-43.5 134.5T603 807q-97 0-144.5-24T403 701q-3-21-28-21H193q-31 0-29 30 7 300 445 300 164 0 262.5-44t139-126 40.5-213V289q0-56 8.5-79t28.5-38zm-567-5h30q66 0 121.5 20t93.5 66.5T804 366v59l-315-23q-129-10-129-115 0-120 161-120z"/><glyph glyph-name="Aogonek" unicode="Ą" vert-adv-y="1980" d="M812 1316L1162 34q8-34-24-34h-70q-87 0-129.5-30T896-111q0-48 37-76.5t104-28.5h37q20 0 20-20v-116q0-20-20-20h-59q-55 0-103.5 10.5t-95.5 34-74.5 70.5T714-145q0 162 174 216l-48 190H390L330 24q-5-24-34-24H93Q59 0 69 34l349 1282q8 24 35 24h324q27 0 35-24zm-215-246L447 484h336l-150 586h-36z"/><glyph glyph-name="aogonek" unicode="ą" vert-adv-y="1980" d="M1088 172q15-11 22-17.5t12-19.5 5-31V70q0-79-101-85-87 0-129.5-30.5T854-126q0-49 37-77t104-28h38q20 0 20-20v-116q0-20-20-20h-60q-55 0-103.5 10T774-343t-74.5 70.5T672-160Q672 8 858 59q-27 41-27 101v21h-16Q785 94 701 34.5T483-25h-50q-148 0-233 77.5T115 271q0 267 312 287l377 25v53q0 98-43.5 134.5T603 807q-97 0-144.5-24T403 701q-3-21-28-21H193q-31 0-29 30 7 300 445 300 164 0 262.5-44t139-126 40.5-213V289q0-56 8.5-79t28.5-38zm-567-5h30q66 0 121.5 20t93.5 66.5T804 366v59l-315-23q-129-10-129-115 0-120 161-120z"/><glyph glyph-name="Cacute" unicode="Ć" vert-adv-y="1980" d="M723 1547H555q-17 0-24 9t0 25l120 252q11 24 34 24h168q17 0 24-9t0-25l-120-252q-11-24-34-24zM632-30q-279 0-401.5 162.5T108 665t122.5 532.5T632 1360q114 0 198-25.5t148.5-83.5 100-157.5T1121 851q2-33-28-33H910q-29 0-32 26-9 81-30 135t-54.5 82-71.5 38.5-91 10.5q-69 0-116-18.5t-83.5-67-53.5-137T361 665t17-222.5 53.5-137 83.5-67T631 220q111 0 170 45.5T878 430q3 26 32 26h183q30 0 28-32-13-241-137-347.5T632-30z"/><glyph glyph-name="cacute" unicode="ć" vert-adv-y="1980" d="M748 1197H580q-17 0-24 9t0 25l120 252q11 24 34 24h168q17 0 24-9t0-25l-120-252q-11-24-34-24zm-96-988q144 0 233 113 18 23 40 8l134-91q25-17 9-40-65-103-175-163.5T644-25q-223 0-370 147T127 493t147 370.5T644 1010q139 0 249-60.5T1068 786q16-23-10-41l-133-90q-22-15-40 8-89 113-233 113-121 0-200.5-78.5T372 493t79.5-205T652 209z"/><glyph glyph-name="Cdotaccent" unicode="Ċ" vert-adv-y="1980" d="M632 1598q-53 0-91 38t-38 93q0 53 38 90.5t91 37.5 91-37.5 38-90.5q0-55-38-93t-91-38zm0-1628q-279 0-401.5 162.5T108 665t122.5 532.5T632 1360q114 0 198-25.5t148.5-83.5 100-157.5T1121 851q2-33-28-33H910q-29 0-32 26-9 81-30 135t-54.5 82-71.5 38.5-91 10.5q-69 0-116-18.5t-83.5-67-53.5-137T361 665t17-222.5 53.5-137 83.5-67T631 220q111 0 170 45.5T878 430q3 26 32 26h183q30 0 28-32-13-241-137-347.5T632-30z"/><glyph glyph-name="cdotaccent" unicode="ċ" vert-adv-y="1980" d="M657 1248q-53 0-91 38t-38 93q0 53 38 90.5t91 37.5 91-37.5 38-90.5q0-55-38-93t-91-38zm-5-1039q144 0 233 113 18 23 40 8l134-91q25-17 9-40-65-103-175-163.5T644-25q-223 0-370 147T127 493t147 370.5T644 1010q139 0 249-60.5T1068 786q16-23-10-41l-133-90q-22-15-40 8-89 113-233 113-121 0-200.5-78.5T372 493t79.5-205T652 209z"/><glyph glyph-name="Ccaron" unicode="Č" vert-adv-y="1980" d="M761 1541H503q-21 0-36 16l-223 264q-12 15-7 25.5t25 10.5h193q23 0 36-16l141-160 141 160q13 16 36 16h193q20 0 25-10.5t-7-25.5l-223-264q-15-16-36-16zM632-30q-279 0-401.5 162.5T108 665t122.5 532.5T632 1360q114 0 198-25.5t148.5-83.5 100-157.5T1121 851q2-33-28-33H910q-29 0-32 26-9 81-30 135t-54.5 82-71.5 38.5-91 10.5q-69 0-116-18.5t-83.5-67-53.5-137T361 665t17-222.5 53.5-137 83.5-67T631 220q111 0 170 45.5T878 430q3 26 32 26h183q30 0 28-32-13-241-137-347.5T632-30z"/><glyph glyph-name="ccaron" unicode="č" vert-adv-y="1980" d="M786 1191H528q-21 0-36 16l-223 264q-12 15-6.5 25.5T287 1507h193q23 0 36-16l141-160 141 160q13 16 36 16h193q19 0 24.5-10.5t-6.5-25.5l-223-264q-15-16-36-16zM652 209q144 0 233 113 18 23 40 8l134-91q25-17 9-40-65-103-175-163.5T644-25q-223 0-370 147T127 493t147 370.5T644 1010q139 0 249-60.5T1068 786q16-23-10-41l-133-90q-22-15-40 8-89 113-233 113-121 0-200.5-78.5T372 493t79.5-205T652 209z"/><glyph glyph-name="Dcaron" unicode="Ď" vert-adv-y="1980" d="M744 1541H486q-21 0-36 16l-223 264q-12 15-6.5 25.5T245 1857h193q23 0 36-16l141-160 141 160q13 16 36 16h193q19 0 24.5-10.5t-6.5-25.5l-223-264q-15-16-36-16zM578 0H158q-14 0-22 8t-8 22v1280q0 14 8 22t22 8h420q129 0 227-33t161-90 103-143 56-184 16-220-16-220-56-184-103-143-161-90T578 0zM389 1108V232h180q76 0 130.5 20t88 55 53.5 91.5 27 120 7 151.5-7 151.5-27 120-53.5 91.5-88 55-130.5 20H389z"/><glyph glyph-name="dcaron" unicode="ď" vert-adv-y="1980" d="M1383 1651h168q17 0 24-9t0-25l-120-252q-11-24-34-24h-168q-17 0-24 9t0 25l120 252q11 24 34 24zm-504-251h192q13 0 21.5-8t8.5-22V30q0-14-8.5-22T1071 0H903q-26 0-29 30l-15 156h-25Q801 93 718 34T514-25q-192 0-309.5 146T87 489q0 230 129 375.5T563 1010q192 0 286-118v478q0 14 8.5 22t21.5 8zM597 208q120 0 191.5 77T860 493t-71.5 207.5T597 777q-119 0-191.5-77T333 493t72.5-207.5T597 208z"/><glyph glyph-name="Dcroat" unicode="Đ" vert-adv-y="1980" d="M176 1340h420q129 0 226.5-33t160.5-90 103-143 56-184 16-220-16-220-56-184-103-143-160.5-90T596 0H176q-14 0-22 8t-8 22v541H87q-13 0-21.5 8.5T57 601v138q0 13 8.5 21.5T87 769h59v541q0 14 8 22t22 8zM407 232h179q76 0 130.5 20t88.5 55 54 91.5 27 120 7 151.5-7 151.5-27 120-54 91.5-88.5 55-130.5 20H407V769h214q13 0 21.5-8.5T651 739V601q0-13-8.5-21.5T621 571H407V232z"/><glyph glyph-name="dcroat" unicode="đ" vert-adv-y="1980" d="M1101 1262h54q13 0 21.5-8t8.5-22v-75q0-13-8.5-21.5t-21.5-8.5h-54V30q0-14-8.5-22T1071 0H903q-26 0-29 30l-15 156h-25Q801 93 718 34T514-25q-192 0-309.5 146T87 489q0 230 129 375.5T563 1010q192 0 286-118v235H591q-13 0-21.5 8.5T561 1157v75q0 14 8.5 22t21.5 8h258v108q0 14 8.5 22t21.5 8h192q13 0 21.5-8t8.5-22v-108zM597 208q120 0 191.5 77T860 493t-71.5 207.5T597 777q-119 0-191.5-77T333 493t72.5-207.5T597 208z"/><glyph glyph-name="Emacron" unicode="Ē" vert-adv-y="1980" d="M882 1660H348q-14 0-22 8t-8 22v137q0 13 8 21.5t22 8.5h534q14 0 22-8.5t8-21.5v-137q0-14-8-22t-22-8zM1044 0H187q-13 0-21.5 8T157 30v1280q0 14 8.5 22t21.5 8h855q14 0 22-8t8-22v-172q0-14-8-22t-22-8H418V791h579q13 0 21.5-8.5t8.5-21.5V589q0-13-8.5-21.5T997 559H418V232h626q14 0 22-8t8-22V30q0-14-8-22t-22-8z"/><glyph glyph-name="emacron" unicode="ē" vert-adv-y="1980" d="M882 1310H348q-14 0-22 8t-8 22v137q0 13 8 21.5t22 8.5h534q14 0 22-8.5t8-21.5v-137q0-14-8-22t-22-8zm226-788q0-54-17-76.5t-73-22.5l-655 1q8-118 93-183t223-65q128 0 231 56 23 13 41 7t44-39q30-37 32.5-58T1006 96Q950 41 857 8T651-25q-238 0-383.5 143.5T122 494q0 230 140 373t368 143q222 0 350-136t128-352zM631 796q-105 0-172.5-52T372 593h513q-14 100-81 152t-173 51z"/><glyph glyph-name="Edotaccent" unicode="Ė" vert-adv-y="1980" d="M615 1598q-53 0-91 38t-38 93q0 53 38 90.5t91 37.5 91-37.5 38-90.5q0-55-38-93t-91-38zM1044 0H187q-13 0-21.5 8T157 30v1280q0 14 8.5 22t21.5 8h855q14 0 22-8t8-22v-172q0-14-8-22t-22-8H418V791h579q13 0 21.5-8.5t8.5-21.5V589q0-13-8.5-21.5T997 559H418V232h626q14 0 22-8t8-22V30q0-14-8-22t-22-8z"/><glyph glyph-name="edotaccent" unicode="ė" vert-adv-y="1980" d="M615 1248q-53 0-91 38t-38 93q0 53 38 90.5t91 37.5 91-37.5 38-90.5q0-55-38-93t-91-38zm493-726q0-54-17-76.5t-73-22.5l-655 1q8-118 93-183t223-65q128 0 231 56 23 13 41 7t44-39q30-37 32.5-58T1006 96Q950 41 857 8T651-25q-238 0-383.5 143.5T122 494q0 230 140 373t368 143q222 0 350-136t128-352zM631 796q-105 0-172.5-52T372 593h513q-14 100-81 152t-173 51z"/><glyph glyph-name="Eogonek" unicode="Ę" vert-adv-y="1980" d="M1023-216h37q20 0 20-20v-116q0-20-20-20h-59q-55 0-104 10.5t-96 34-74.5 70.5T699-145q0 88 52 145H187q-13 0-21.5 8T157 30v1280q0 14 8.5 22t21.5 8h855q14 0 22-8t8-22v-172q0-14-8-22t-22-8H418V791h579q13 0 21.5-8.5t8.5-21.5V589q0-13-8.5-21.5T997 559H418V232h626q14 0 22-8t8-22V30q0-22-20-29V0q-88 0-130-30t-42-81q0-48 36.5-76.5T1023-216z"/><glyph glyph-name="eogonek" unicode="ę" vert-adv-y="1980" d="M1108 522q0-54-17-76.5t-73-22.5l-655 1q8-118 93-183t223-65q128 0 231 56 23 13 41 7t44-39q30-37 32.5-58T1006 96Q914 7 751-18q-61-18-89.5-44.5T633-132q0-47 33-73t99-26h46q20 0 20-20v-116q0-20-20-20h-59q-55 0-104 10t-95.5 32.5-74 67T451-172q0 109 92 156-194 32-307.5 169T122 494q0 230 140 373t368 143q222 0 350-136t128-352zM631 796q-105 0-172.5-52T372 593h513q-14 100-81 152t-173 51z"/><glyph glyph-name="Ecaron" unicode="Ě" vert-adv-y="1980" d="M744 1541H486q-21 0-36 16l-223 264q-12 15-6.5 25.5T245 1857h193q23 0 36-16l141-160 141 160q13 16 36 16h193q19 0 24.5-10.5t-6.5-25.5l-223-264q-15-16-36-16zM1044 0H187q-13 0-21.5 8T157 30v1280q0 14 8.5 22t21.5 8h855q14 0 22-8t8-22v-172q0-14-8-22t-22-8H418V791h579q13 0 21.5-8.5t8.5-21.5V589q0-13-8.5-21.5T997 559H418V232h626q14 0 22-8t8-22V30q0-14-8-22t-22-8z"/><glyph glyph-name="ecaron" unicode="ě" vert-adv-y="1980" d="M450 1207l-223 264q-12 15-6.5 25.5T245 1507h193q23 0 36-16l141-160 141 160q13 16 36 16h193q19 0 24.5-10.5t-6.5-25.5l-223-264q-15-16-36-16H486q-21 0-36 16zm658-685q0-54-17-76.5t-73-22.5l-655 1q8-118 93-183t223-65q128 0 231 56 23 13 41 7t44-39q30-37 32.5-58T1006 96Q950 41 857 8T651-25q-238 0-383.5 143.5T122 494q0 230 140 373t368 143q222 0 350-136t128-352zM631 796q-105 0-172.5-52T372 593h513q-14 100-81 152t-173 51z"/><glyph glyph-name="Gbreve" unicode="Ğ" vert-adv-y="1980" d="M625 1543q-141 0-226.5 80T301 1826q-3 31 29 31h105q26 0 32-29 12-50 53-85.5t105-35.5 105.5 35.5T783 1828q6 29 32 29h105q33 0 30-31-13-123-98.5-203T625 1543zm477-824q14 0 22-8.5t8-21.5V530q0-294-119-427T633-30q-280 0-402.5 162.5T108 665t122.5 532.5T632 1360q114 0 198-23.5t148.5-77 100-145.5 41.5-223q3-33-27-33H910q-30 0-34 26-16 128-77 177t-168 49q-69 0-116-18.5t-83.5-67-53.5-137T361 665q0-108 12-186t33.5-128 57-79 77.5-40.5T641 220q63 0 106 13t75.5 45 48 89T886 510v5H604q-14 0-22 8.5t-8 21.5v144q0 13 8 21.5t22 8.5h498z"/><glyph glyph-name="gbreve" unicode="ğ" vert-adv-y="1980" d="M615 1193q-141 0-226.5 80T291 1476q-3 31 29 31h105q26 0 32-29 12-50 53-85.5t105-35.5 105.5 35.5T773 1478q6 29 32 29h105q33 0 30-31-13-123-98.5-203T615 1193zm284-203h177q14 0 22-8t8-22V59q0-106-33-188.5T987.5-261 862-341.5t-144-43T567-396q-239 0-370 88-22 13-12 39l44 126q9 25 39 16 124-57 275-57 326 0 326 254v176h-29q-29-90-114.5-142.5T524 51q-187 0-304.5 133T102 520q0 214 126.5 352T553 1010q197 0 311-146l5 96q3 30 30 30zM603 266q111 0 182 72t71 186q0 115-70.5 185T603 779q-113 0-184-70t-71-185q0-114 71.5-186T603 266z"/><glyph glyph-name="Gdotaccent" unicode="Ġ" vert-adv-y="1980" d="M625 1598q-53 0-91 38t-38 93q0 53 38 90.5t91 37.5 91-37.5 38-90.5q0-55-38-93t-91-38zm477-879q14 0 22-8.5t8-21.5V530q0-294-119-427T633-30q-280 0-402.5 162.5T108 665t122.5 532.5T632 1360q114 0 198-23.5t148.5-77 100-145.5 41.5-223q3-33-27-33H910q-30 0-34 26-16 128-77 177t-168 49q-69 0-116-18.5t-83.5-67-53.5-137T361 665q0-108 12-186t33.5-128 57-79 77.5-40.5T641 220q63 0 106 13t75.5 45 48 89T886 510v5H604q-14 0-22 8.5t-8 21.5v144q0 13 8 21.5t22 8.5h498z"/><glyph glyph-name="gdotaccent" unicode="ġ" vert-adv-y="1980" d="M615 1248q-53 0-91 38t-38 93q0 53 38 90.5t91 37.5 91-37.5 38-90.5q0-55-38-93t-91-38zm284-258h177q14 0 22-8t8-22V59q0-106-33-188.5T987.5-261 862-341.5t-144-43T567-396q-239 0-370 88-22 13-12 39l44 126q9 25 39 16 124-57 275-57 326 0 326 254v176h-29q-29-90-114.5-142.5T524 51q-187 0-304.5 133T102 520q0 214 126.5 352T553 1010q197 0 311-146l5 96q3 30 30 30zM603 266q111 0 182 72t71 186q0 115-70.5 185T603 779q-113 0-184-70t-71-185q0-114 71.5-186T603 266z"/><glyph glyph-name="uni0122" unicode="Ģ" vert-adv-y="1980" d="M1102 719q14 0 22-8.5t8-21.5V530q0-294-119-427T633-30q-280 0-402.5 162.5T108 665t122.5 532.5T632 1360q114 0 198-23.5t148.5-77 100-145.5 41.5-223q3-33-27-33H910q-30 0-34 26-16 128-77 177t-168 49q-69 0-116-18.5t-83.5-67-53.5-137T361 665q0-108 12-186t33.5-128 57-79 77.5-40.5T641 220q63 0 106 13t75.5 45 48 89T886 510v5H604q-14 0-22 8.5t-8 21.5v144q0 13 8 21.5t22 8.5h498zM421-174h414q28 0 28-28v-79q0-269-36-423-4-21-32-21H667q-29 0-26 30 15 165 14 327H421q-13 0-20.5 7.5T393-341v139q0 28 28 28z"/><glyph glyph-name="uni0123" unicode="ģ" vert-adv-y="1980" d="M839 1198H425q-28 0-28 28v79q0 268 36 423 4 20 32 20h127q29 0 27-29-17-178-14-327h234q13 0 20.5-7.5t7.5-19.5v-139q0-28-28-28zm60-208h177q14 0 22-8t8-22V59q0-106-33-188.5T987.5-261 862-341.5t-144-43T567-396q-239 0-370 88-22 13-12 39l44 126q9 25 39 16 124-57 275-57 326 0 326 254v176h-29q-29-90-114.5-142.5T524 51q-187 0-304.5 133T102 520q0 214 126.5 352T553 1010q197 0 311-146l5 96q3 30 30 30zM603 266q111 0 182 72t71 186q0 115-70.5 185T603 779q-113 0-184-70t-71-185q0-114 71.5-186T603 266z"/><glyph glyph-name="Hbar" unicode="Ħ" vert-adv-y="1980" d="M861 1340h201q14 0 22-8t8-22V30q0-14-8-22t-22-8H861q-13 0-21.5 8T831 30v513H399V30q0-14-8.5-22T369 0H168q-14 0-22 8t-8 22v1280q0 14 8 22t22 8h201q13 0 21.5-8t8.5-22v-154h432v154q0 14 8.5 22t21.5 8zM399 943V775h432v168H399z"/><glyph glyph-name="hbar" unicode="ħ" vert-adv-y="1980" d="M730 1010q160 0 258-112t98-306V30q0-14-8-22t-22-8H864q-14 0-22 8t-8 22v514q0 108-57.5 170.5T615 777q-103 0-161-62.5T396 544V30q0-14-8-22t-22-8H174q-14 0-22 8t-8 22v1082H38q-14 0-22 8t-8 22v102q0 14 8 22t22 8h106v96q0 14 8 22t22 8h192q14 0 22-8t8-22v-96h318q14 0 22-8t8-22v-102q0-14-8-22t-22-8H396V817h31q38 85 115.5 139t187.5 54z"/><glyph glyph-name="Imacron" unicode="Ī" vert-adv-y="1980" d="M882 1660H348q-14 0-22 8t-8 22v137q0 13 8 21.5t22 8.5h534q14 0 22-8.5t8-21.5v-137q0-14-8-22t-22-8zM1069 0H161q-13 0-21.5 8T131 30v172q0 14 8.5 22t21.5 8h323v876H161q-13 0-21.5 8t-8.5 22v172q0 14 8.5 22t21.5 8h908q13 0 21.5-8t8.5-22v-172q0-14-8.5-22t-21.5-8H746V232h323q13 0 21.5-8t8.5-22V30q0-14-8.5-22T1069 0z"/><glyph glyph-name="imacron" unicode="ī" vert-adv-y="1980" d="M872 1310H338q-14 0-22 8t-8 22v137q0 13 8 21.5t22 8.5h534q14 0 22-8.5t8-21.5v-137q0-14-8-22t-22-8zm23-1103h153q14 0 22-8.5t8-21.5V30q0-14-8-22t-22-8H796Q650 0 573 81t-77 229v473H187q-13 0-21.5 8.5T157 813v147q0 14 8.5 22t21.5 8h531q14 0 22-8t8-22V356q0-149 147-149z"/><glyph glyph-name="Iogonek" unicode="Į" vert-adv-y="1980" d="M1069 1108H746V232h323q13 0 21.5-8t8.5-22V30q0-14-8.5-22T1069 0H807q-87 0-129.5-30T635-111q0-48 37-76.5T776-216h37q20 0 20-20v-116q0-20-20-20h-59q-55 0-103.5 10.5t-95.5 34-74.5 70.5T453-145q0 88 52 145H161q-13 0-21.5 8T131 30v172q0 14 8.5 22t21.5 8h323v876H161q-13 0-21.5 8t-8.5 22v172q0 14 8.5 22t21.5 8h908q13 0 21.5-8t8.5-22v-172q0-14-8.5-22t-21.5-8z"/><glyph glyph-name="iogonek" unicode="į" vert-adv-y="1980" d="M605 1248q-53 0-91 38t-38 93q0 53 38 90.5t91 37.5 91-37.5 38-90.5q0-55-38-93t-91-38zM895 207h153q14 0 22-8.5t8-21.5V30q0-14-8-22t-22-8H818q-87 0-129.5-30T646-111q0-48 37-76.5T787-216h37q20 0 20-20v-116q0-20-20-20h-59q-55 0-103.5 10.5t-95.5 34-74.5 70.5T464-145Q464-2 600 57q-104 80-104 253v473H187q-13 0-21.5 8.5T157 813v147q0 14 8.5 22t21.5 8h531q14 0 22-8t8-22V356q0-149 147-149z"/><glyph glyph-name="Idotaccent" unicode="İ" vert-adv-y="1980" d="M615 1598q-53 0-91 38t-38 93q0 53 38 90.5t91 37.5 91-37.5 38-90.5q0-55-38-93t-91-38zM1069 0H161q-13 0-21.5 8T131 30v172q0 14 8.5 22t21.5 8h323v876H161q-13 0-21.5 8t-8.5 22v172q0 14 8.5 22t21.5 8h908q13 0 21.5-8t8.5-22v-172q0-14-8.5-22t-21.5-8H746V232h323q13 0 21.5-8t8.5-22V30q0-14-8.5-22T1069 0z"/><glyph glyph-name="dotlessi" unicode="ı" vert-adv-y="1980" d="M895 207h153q14 0 22-8.5t8-21.5V30q0-14-8-22t-22-8H796Q650 0 573 81t-77 229v473H187q-13 0-21.5 8.5T157 813v147q0 14 8.5 22t21.5 8h531q14 0 22-8t8-22V356q0-149 147-149z"/><glyph glyph-name="IJ" unicode="Ĳ" vert-adv-y="1980" d="M93 1340h201q14 0 22-8t8-22V30q0-14-8-22t-22-8H93Q80 0 71.5 8T63 30v1280q0 14 8.5 22t21.5 8zm1045 0q14 0 22-8t8-22V496q0-132-38-233t-105.5-161T872 12 686-18q-150 0-241 56-24 15-12 42l66 150q11 25 38 14 52-21 114-21 54 0 97.5 15.5t80 50.5 57 99T906 541v567H490q-14 0-22 8t-8 22v172q0 14 8 22t22 8h648z"/><glyph glyph-name="ij" unicode="ĳ" vert-adv-y="1980" d="M1028 1223q-63 0-106.5 43.5T878 1372q0 63 43.5 106.5T1028 1522q62 0 106-43.5t44-106.5q0-62-44-105.5t-106-43.5zm-803-10q-62 0-106 43.5T75 1362q0 63 44 106.5t106 43.5 106-43.5 44-106.5q0-62-44-105.5T225 1213zM320 2H128q-14 0-22 8t-8 22v930q0 14 8 22t22 8h192q14 0 22-8t8-22V32q0-14-8-22t-22-8zm400-387q-65 0-126.5 13t-105 33-74.5 43.5-42 45.5-2 37l72 120q16 27 47 7 104-68 209-68 43 0 79 10.5t69 35 52 72T917 77v706H478q-14 0-22 8.5t-8 21.5v147q0 14 8 22t22 8h661q13 0 21.5-8t8.5-22V50q0-98-28-175.5t-73-125-105.5-79-120-43.5T720-385z"/><glyph glyph-name="uni0136" unicode="Ķ" vert-adv-y="1980" d="M675 729l489-693q10-15 5-25.5T1146 0H924q-23 0-36 18L522 536 372 346V30q0-14-8-22t-22-8H140q-14 0-22 8t-8 22v1280q0 14 8 22t22 8h202q14 0 22-8t8-22V708l464 616q12 16 36 16h242q19 0 23.5-11t-7.5-25zM405-174h414q28 0 28-28v-79q0-269-36-423-4-21-32-21H651q-29 0-26 30 15 165 14 327H405q-13 0-20.5 7.5T377-341v139q0 28 28 28z"/><glyph glyph-name="uni0137" unicode="ķ" vert-adv-y="1980" d="M701 558l420-522q12-15 6-25.5T1103 0H884q-21 0-36 18L547 392 413 247V30q0-14-8.5-22T383 0H191q-13 0-21.5 8T161 30v1340q0 14 8.5 22t21.5 8h192q13 0 21.5-8t8.5-22V558l370 416q15 16 36 16h233q20 0 24.5-11t-8.5-25zM405-174h414q28 0 28-28v-79q0-269-36-423-4-21-32-21H651q-29 0-26 30 15 165 14 327H405q-13 0-20.5 7.5T377-341v139q0 28 28 28z"/><glyph glyph-name="Lacute" unicode="Ĺ" vert-adv-y="1980" d="M380 1521H212q-17 0-24 9t0 25l120 252q11 24 34 24h168q17 0 24-9t0-25l-120-252q-11-24-34-24zM1059 0H202q-14 0-22 8t-8 22v1280q0 14 8 22t22 8h201q13 0 21.5-8t8.5-22V232h626q13 0 21.5-8t8.5-22V30q0-14-8.5-22T1059 0z"/><glyph glyph-name="lacute" unicode="ĺ" vert-adv-y="1980" d="M706 1624H538q-17 0-24 9t0 25l120 252q11 24 34 24h168q17 0 24-9t0-25l-120-252q-11-24-34-24zM1069 0H810Q658 0 574 88t-84 242v863H157q-13 0-21.5 8.5T127 1223v147q0 14 8.5 22t21.5 8h555q14 0 22-8t8-22V367q0-75 42-117.5T901 207h168q13 0 21.5-8.5t8.5-21.5V30q0-14-8.5-22T1069 0z"/><glyph glyph-name="uni013B" unicode="Ļ" vert-adv-y="1980" d="M1059 0H202q-14 0-22 8t-8 22v1280q0 14 8 22t22 8h201q13 0 21.5-8t8.5-22V232h626q13 0 21.5-8t8.5-22V30q0-14-8.5-22T1059 0zM405-174h414q28 0 28-28v-79q0-269-36-423-4-21-32-21H651q-29 0-26 30 15 165 14 327H405q-13 0-20.5 7.5T377-341v139q0 28 28 28z"/><glyph glyph-name="uni013C" unicode="ļ" vert-adv-y="1980" d="M1069 0H810Q658 0 574 88t-84 242v863H157q-13 0-21.5 8.5T127 1223v147q0 14 8.5 22t21.5 8h555q14 0 22-8t8-22V367q0-75 42-117.5T901 207h168q13 0 21.5-8.5t8.5-21.5V30q0-14-8.5-22T1069 0zM405-174h414q28 0 28-28v-79q0-269-36-423-4-21-32-21H651q-29 0-26 30 15 165 14 327H405q-13 0-20.5 7.5T377-341v139q0 28 28 28z"/><glyph glyph-name="Lcaron" unicode="Ľ" vert-adv-y="1980" d="M1059 0H202q-14 0-22 8t-8 22v1280q0 14 8 22t22 8h201q13 0 21.5-8t8.5-22V232h626q13 0 21.5-8t8.5-22V30q0-14-8.5-22T1059 0zM578 1340h453q13 0 21.5-8t8.5-22v-87q0-294-39-463-4-22-35-22H848q-32 0-29 32 17 204 15 358H578q-14 0-22 8t-8 22v152q0 14 8 22t22 8z"/><glyph glyph-name="lcaron" unicode="ľ" vert-adv-y="1980" d="M785 1403h379q11 0 18.5-8.5t7.5-21.5v-86q0-293-33-463-4-23-30-23h-116q-27 0-24 32 15 195 12 358H785q-25 0-25 30v152q0 30 25 30zM980 0H721Q569 0 485 88t-84 242v863H68q-14 0-22 8.5t-8 21.5v147q0 14 8 22t22 8h555q13 0 21.5-8t8.5-22V367q0-75 42-117.5T812 207h168q14 0 22-8.5t8-21.5V30q0-14-8-22t-22-8z"/><glyph glyph-name="Ldot" unicode="Ŀ" vert-adv-y="1980" d="M1059 0H202q-14 0-22 8t-8 22v1280q0 14 8 22t22 8h201q13 0 21.5-8t8.5-22V232h626q13 0 21.5-8t8.5-22V30q0-14-8.5-22T1059 0zM784 592q-81 0-138.5 57.5T588 789t57.5 139T784 985q82 0 139.5-57T981 789t-57.5-139.5T784 592z"/><glyph glyph-name="ldot" unicode="ŀ" vert-adv-y="1980" d="M1069 0H810Q658 0 574 88t-84 242v863H157q-13 0-21.5 8.5T127 1223v147q0 14 8.5 22t21.5 8h555q14 0 22-8t8-22V367q0-75 42-117.5T901 207h168q13 0 21.5-8.5t8.5-21.5V30q0-14-8.5-22T1069 0zm-68 634q-64 0-109 45t-45 109 45 109 109 45 109-45 45-109-45-109-109-45z"/><glyph glyph-name="Lslash" unicode="Ł" vert-adv-y="1980" d="M468 232h546q14 0 22-8t8-22V30q0-14-8-22t-22-8H237q-13 0-21.5 8T207 30v426L94 345q-15-15-25.5-9.5T58 361v166q0 22 16 38l133 130v675q0 14 8.5 22t21.5 8h201q14 0 22-8t8-22V950l159 156q15 14 25.5 9t10.5-25V926q0-22-16-38L468 712V232z"/><glyph glyph-name="lslash" unicode="ł" vert-adv-y="1980" d="M906 207h168q14 0 22-8.5t8-21.5V30q0-14-8-22t-22-8H816Q664 0 580 88t-84 242v188L342 380v220l154 138v455H162q-14 0-22 8.5t-8 21.5v147q0 14 8 22t22 8h556q14 0 22-8t8-22V963l165 148 2-218-167-150V367q0-75 41.5-117.5T906 207z"/><glyph glyph-name="Nacute" unicode="Ń" vert-adv-y="1980" d="M706 1547H538q-17 0-24 9t0 25l120 252q11 24 34 24h168q17 0 24-9t0-25l-120-252q-11-24-34-24zm172-207h175q13 0 21.5-8t8.5-22V30q0-14-8.5-22T1053 0H825q-27 0-36 20L382 923V30q0-14-8-22t-22-8H177q-13 0-21.5 8T147 30v1280q0 14 8.5 22t21.5 8h229q27 0 36-20l406-902v892q0 14 8 22t22 8z"/><glyph glyph-name="nacute" unicode="ń" vert-adv-y="1980" d="M706 1197H538q-17 0-24 9t0 25l120 252q11 24 34 24h168q17 0 24-9t0-25l-120-252q-11-24-34-24zm24-187q160 0 258-112t98-306V30q0-14-8-22t-22-8H864q-14 0-22 8t-8 22v514q0 108-57.5 170.5T615 777q-103 0-161-62.5T396 544V30q0-14-8-22t-22-8H174q-14 0-22 8t-8 22v930q0 14 8 22t22 8h184q28 0 30-30l8-143h31q38 85 115.5 139t187.5 54z"/><glyph glyph-name="uni0145" unicode="Ņ" vert-adv-y="1980" d="M878 1340h175q13 0 21.5-8t8.5-22V30q0-14-8.5-22T1053 0H825q-27 0-36 20L382 923V30q0-14-8-22t-22-8H177q-13 0-21.5 8T147 30v1280q0 14 8.5 22t21.5 8h229q27 0 36-20l406-902v892q0 14 8 22t22 8zM405-174h414q28 0 28-28v-79q0-269-36-423-4-21-32-21H651q-29 0-26 30 15 165 14 327H405q-13 0-20.5 7.5T377-341v139q0 28 28 28z"/><glyph glyph-name="uni0146" unicode="ņ" vert-adv-y="1980" d="M730 1010q160 0 258-112t98-306V30q0-14-8-22t-22-8H864q-14 0-22 8t-8 22v514q0 108-57.5 170.5T615 777q-103 0-161-62.5T396 544V30q0-14-8-22t-22-8H174q-14 0-22 8t-8 22v930q0 14 8 22t22 8h184q28 0 30-30l8-143h31q38 85 115.5 139t187.5 54zM405-174h414q28 0 28-28v-79q0-269-36-423-4-21-32-21H651q-29 0-26 30 15 165 14 327H405q-13 0-20.5 7.5T377-341v139q0 28 28 28z"/><glyph glyph-name="Ncaron" unicode="Ň" vert-adv-y="1980" d="M450 1557l-223 264q-12 15-6.5 25.5T245 1857h193q23 0 36-16l141-160 141 160q13 16 36 16h193q19 0 24.5-10.5t-6.5-25.5l-223-264q-15-16-36-16H486q-21 0-36 16zm428-217h175q13 0 21.5-8t8.5-22V30q0-14-8.5-22T1053 0H825q-27 0-36 20L382 923V30q0-14-8-22t-22-8H177q-13 0-21.5 8T147 30v1280q0 14 8.5 22t21.5 8h229q27 0 36-20l406-902v892q0 14 8 22t22 8z"/><glyph glyph-name="ncaron" unicode="ň" vert-adv-y="1980" d="M450 1207l-223 264q-12 15-6.5 25.5T245 1507h193q23 0 36-16l141-160 141 160q13 16 36 16h193q19 0 24.5-10.5t-6.5-25.5l-223-264q-15-16-36-16H486q-21 0-36 16zm280-197q160 0 258-112t98-306V30q0-14-8-22t-22-8H864q-14 0-22 8t-8 22v514q0 108-57.5 170.5T615 777q-103 0-161-62.5T396 544V30q0-14-8-22t-22-8H174q-14 0-22 8t-8 22v930q0 14 8 22t22 8h184q28 0 30-30l8-143h31q38 85 115.5 139t187.5 54z"/><glyph glyph-name="Eng" unicode="Ŋ" vert-adv-y="1980" d="M878 1340h175q13 0 21.5-8t8.5-22V0q0-224-132-318.5T547-413v236q149 0 225 41.5T848 0h-23q-27 0-36 20L382 923V30q0-14-8-22t-22-8H177q-13 0-21.5 8T147 30v1280q0 14 8.5 22t21.5 8h229q27 0 36-20l406-902v892q0 14 8 22t22 8z"/><glyph glyph-name="eng" unicode="ŋ" vert-adv-y="1980" d="M730 1010q160 0 258-112t98-306V19q0-202-105.5-308.5T695-396q-18 0-23 16l-60 196q-3 9 1 15.5t13 6.5q89 0 148.5 57T834 63v481q0 108-57.5 170.5T615 777q-103 0-161-62.5T396 544V30q0-14-8-22t-22-8H174q-14 0-22 8t-8 22v930q0 14 8 22t22 8h184q28 0 30-30l8-143h31q38 85 115.5 139t187.5 54z"/><glyph glyph-name="Omacron" unicode="Ō" vert-adv-y="1980" d="M882 1660H348q-14 0-22 8t-8 22v137q0 13 8 21.5t22 8.5h534q14 0 22-8.5t8-21.5v-137q0-14-8-22t-22-8zM615-30q-267 0-387 163T108 665t120 532 387 163 387-163 120-532-120-532T615-30zm0 250q50 0 87 11t70 40.5 53.5 79.5 32 128.5T869 665t-11.5 185.5-32 128.5-53.5 79.5-70 40.5-87 11-87-11-70-40.5-53.5-79.5-32-128.5T361 665t11.5-185.5 32-128.5 53.5-79.5 70-40.5 87-11z"/><glyph glyph-name="omacron" unicode="ō" vert-adv-y="1980" d="M882 1310H348q-14 0-22 8t-8 22v137q0 13 8 21.5t22 8.5h534q14 0 22-8.5t8-21.5v-137q0-14-8-22t-22-8zM615-25q-220 0-364.5 148T106 493q0 221 144.5 369T615 1010t365-148 145-369-145-369.5T615-25zm0 234q115 0 189.5 79T879 493t-74 204.5T615 776t-190-78.5T351 493t74.5-205T615 209z"/><glyph glyph-name="Ohungarumlaut" unicode="Ő" vert-adv-y="1980" d="M517 1547H349q-17 0-24 9t0 25l120 252q11 24 34 24h168q17 0 24-9t0-25l-120-252q-11-24-34-24zm358 0H707q-17 0-24 9t0 25l120 252q11 24 34 24h168q17 0 24-9t0-25l-120-252q-11-24-34-24zM615-30q-267 0-387 163T108 665t120 532 387 163 387-163 120-532-120-532T615-30zm0 250q50 0 87 11t70 40.5 53.5 79.5 32 128.5T869 665t-11.5 185.5-32 128.5-53.5 79.5-70 40.5-87 11-87-11-70-40.5-53.5-79.5-32-128.5T361 665t11.5-185.5 32-128.5 53.5-79.5 70-40.5 87-11z"/><glyph glyph-name="ohungarumlaut" unicode="ő" vert-adv-y="1980" d="M517 1197H349q-17 0-24 9t0 25l120 252q11 24 34 24h168q17 0 24-9t0-25l-120-252q-11-24-34-24zm358 0H707q-17 0-24 9t0 25l120 252q11 24 34 24h168q17 0 24-9t0-25l-120-252q-11-24-34-24zM615-25q-220 0-364.5 148T106 493q0 221 144.5 369T615 1010t365-148 145-369-145-369.5T615-25zm0 234q115 0 189.5 79T879 493t-74 204.5T615 776t-190-78.5T351 493t74.5-205T615 209z"/><glyph glyph-name="OE" unicode="Œ" vert-adv-y="1980" d="M856 232h256q14 0 22-8t8-22V30q0-14-8-22t-22-8H595Q407-1 299.5 57.5T140 261.5 88 666q0 195 27.5 323.5t90 207.5 156 111.5T595 1340h515q14 0 22-8t8-22v-172q0-14-8-22t-22-8H856V791h213q13 0 21.5-8.5t8.5-21.5V589q0-13-8.5-21.5T1069 559H856V232zm-261 6v865q-60 0-97-8.5t-70-33.5-50.5-74-27-127-9.5-194q0-84 5-147t13.5-109 24.5-77 34-50.5 47-29 58-12.5 72-3z"/><glyph glyph-name="oe" unicode="œ" vert-adv-y="1980" d="M914 172q92 0 168 71l101-120Q1079-26 895-26q-189 0-272 172Q544-26 365-26q-164 0-246 138.5T37 494t82 381 246 138q180 0 259-173 81 173 260 173 69 0 122.5-26t88.5-70.5 57.5-109 32-136.5 9.5-157q0-63-13.5-90t-55.5-27H715q11-110 57-167.5T914 172zm-46 638q-75 0-111.5-63T713 563h296q0 123-33 185t-108 62zM374 176q159 0 159 316T374 808q-160 0-160-316t160-316z"/><glyph glyph-name="Racute" unicode="Ŕ" vert-adv-y="1980" d="M706 1547H538q-17 0-24 9t0 25l120 252q11 24 34 24h168q17 0 24-9t0-25l-120-252q-11-24-34-24zM892 481l227-446q8-16 1.5-25.5T1097 0H898q-24 0-35 23L652 440H406V30q0-14-8-22t-22-8H175q-13 0-21.5 8T145 30v1280q0 14 8.5 22t21.5 8h468q487 0 487-450 0-314-238-409zm-263 627H406V672h223q126 0 188 49.5T879 890q0 120-62 169t-188 49z"/><glyph glyph-name="racute" unicode="ŕ" vert-adv-y="1980" d="M726 1197H558q-17 0-24 9t0 25l120 252q11 24 34 24h168q17 0 24-9t0-25l-120-252q-11-24-34-24zm54-187q157 0 252.5-99.5T1128 662q0-70-23-99t-67-29H927q-43 0-44 38-2 58-21 99.5T812 735t-66 32-77 10q-117 0-184-75t-67-226V30q0-14-8-22t-22-8H196q-14 0-22 8t-8 22v930q0 14 8 22t22 8h184q27 0 30-30l8-170h35q36 100 121.5 160t205.5 60z"/><glyph glyph-name="uni0156" unicode="Ŗ" vert-adv-y="1980" d="M892 481l227-446q8-16 1.5-25.5T1097 0H898q-24 0-35 23L652 440H406V30q0-14-8-22t-22-8H175q-13 0-21.5 8T145 30v1280q0 14 8.5 22t21.5 8h468q487 0 487-450 0-314-238-409zm-263 627H406V672h223q126 0 188 49.5T879 890q0 120-62 169t-188 49zM405-174h414q28 0 28-28v-79q0-269-36-423-4-21-32-21H651q-29 0-26 30 15 165 14 327H405q-13 0-20.5 7.5T377-341v139q0 28 28 28z"/><glyph glyph-name="uni0157" unicode="ŗ" vert-adv-y="1980" d="M780 1010q157 0 252.5-99.5T1128 662q0-70-23-99t-67-29H927q-43 0-44 38-2 58-21 99.5T812 735t-66 32-77 10q-117 0-184-75t-67-226V30q0-14-8-22t-22-8H196q-14 0-22 8t-8 22v930q0 14 8 22t22 8h184q27 0 30-30l8-170h35q36 100 121.5 160t205.5 60zM41-174h414q28 0 28-28v-79q0-269-36-423-4-21-32-21H287q-29 0-26 30 15 165 14 327H41q-13 0-20.5 7.5T13-341v139q0 28 28 28z"/><glyph glyph-name="Rcaron" unicode="Ř" vert-adv-y="1980" d="M450 1557l-223 264q-12 15-6.5 25.5T245 1857h193q23 0 36-16l141-160 141 160q13 16 36 16h193q19 0 24.5-10.5t-6.5-25.5l-223-264q-15-16-36-16H486q-21 0-36 16zM892 481l227-446q8-16 1.5-25.5T1097 0H898q-24 0-35 23L652 440H406V30q0-14-8-22t-22-8H175q-13 0-21.5 8T145 30v1280q0 14 8.5 22t21.5 8h468q487 0 487-450 0-314-238-409zm-263 627H406V672h223q126 0 188 49.5T879 890q0 120-62 169t-188 49z"/><glyph glyph-name="rcaron" unicode="ř" vert-adv-y="1980" d="M470 1207l-223 264q-12 15-6.5 25.5T265 1507h193q23 0 36-16l141-160 141 160q13 16 36 16h193q19 0 24.5-10.5t-6.5-25.5l-223-264q-15-16-36-16H506q-21 0-36 16zm310-197q157 0 252.5-99.5T1128 662q0-70-23-99t-67-29H927q-43 0-44 38-2 58-21 99.5T812 735t-66 32-77 10q-117 0-184-75t-67-226V30q0-14-8-22t-22-8H196q-14 0-22 8t-8 22v930q0 14 8 22t22 8h184q27 0 30-30l8-170h35q36 100 121.5 160t205.5 60z"/><glyph glyph-name="Sacute" unicode="Ś" vert-adv-y="1980" d="M707 1547H539q-17 0-24 9t0 25l120 252q11 24 34 24h168q17 0 24-9t0-25l-120-252q-11-24-34-24zM607-30q-469 0-498 395-1 15 7 25t21 10h187q24 0 29-29 31-170 264-170 73 0 126.5 16t87.5 56 34 101q0 74-59 118.5T592 570q-76 16-137 36t-122.5 53.5-102.5 76-66.5 106T138 983q0 173 122 275t359 102q211 0 329-90.5T1084 985q1-15-6.5-24.5T1056 951H883q-24 0-29 28-28 150-241 150-108 0-164.5-40T392 974q0-67 57-113t208-78q60-13 101.5-24t94-29 88-38.5T1013 640t58.5-68.5T1107 483t14-113q0-194-131.5-297T607-30z"/><glyph glyph-name="sacute" unicode="ś" vert-adv-y="1980" d="M706 1197H538q-17 0-24 9t0 25l120 252q11 24 34 24h168q17 0 24-9t0-25l-120-252q-11-24-34-24zm-74-611q175-22 253-51 191-70 191-253 0-145-118-226T614-25q-96 0-175 15.5T298 37t-99.5 83T154 242q-1 14 7.5 22t22.5 8h181q24 0 30-21 29-85 223-85 212 0 212 114 0 58-53.5 81.5T596 401q-43 5-72 9.5t-72 13-72 19.5-64.5 26.5T257 507t-43.5 49.5-30.5 65-10 81.5q0 144 112 225.5t326 81.5q188 0 309.5-64.5T1056 749q1-14-7.5-22t-22.5-8H846q-24 0-30 21-11 36-68 57.5T605 819q-187 0-187-110 0-58 49.5-83.5T632 586z"/><glyph glyph-name="Scedilla" unicode="Ş" vert-adv-y="1980" d="M1121 370q0-180-113.5-282T677-28l-45-41q72-6 124.5-49T809-232q0-84-52.5-135.5T628-433t-164 1q-18 3-18 22v88q0 10 6 15.5t16 4.5q79-12 123.5 5t44.5 53q0 21-22.5 36.5t-59.5 18-84-16.5q-10-4-17-.5t-7 14.5v91q0 14 10 24l54 52Q136 11 109 365q-1 15 7 25t21 10h187q24 0 29-29 31-170 264-170 73 0 126.5 16t87.5 56 34 101q0 74-59 118.5T592 570q-76 16-137 36t-122.5 53.5-102.5 76-66.5 106T138 983q0 173 122 275t359 102q211 0 329-90.5T1084 985q1-15-6.5-24.5T1056 951H883q-24 0-29 28-28 150-241 150-108 0-164.5-40T392 974q0-67 57-113t208-78q60-13 101.5-24t94-29 88-38.5T1013 640t58.5-68.5T1107 483t14-113z"/><glyph glyph-name="scedilla" unicode="ş" vert-adv-y="1980" d="M1076 282q0-133-100-212.5T683-23l-50-46q72-6 124.5-49T810-232q0-84-52.5-135.5T629-433t-164 1q-18 3-18 22v88q0 10 6 15.5t16 4.5q79-12 123.5 5t44.5 53q0 21-22.5 36.5t-59.5 18-84-16.5q-11-4-17.5-.5T447-192v91q0 14 10 24l59 56Q358-6 262 59T154 242q-1 14 7.5 22t22.5 8h181q24 0 30-21 29-85 223-85 212 0 212 114 0 58-53.5 81.5T596 401q-43 5-72 9.5t-72 13-72 19.5-64.5 26.5T257 507t-43.5 49.5-30.5 65-10 81.5q0 144 112 225.5t326 81.5q188 0 309.5-64.5T1056 749q1-14-7.5-22t-22.5-8H846q-24 0-30 21-11 36-68 57.5T605 819q-187 0-187-110 0-58 49.5-83.5T632 586q175-22 253-51 191-70 191-253z"/><glyph glyph-name="Scaron" unicode="Š" vert-adv-y="1980" d="M746 1541H488q-21 0-36 16l-223 264q-12 15-6.5 25.5T247 1857h193q23 0 36-16l141-160 141 160q13 16 36 16h193q19 0 24.5-10.5t-6.5-25.5l-223-264q-15-16-36-16zM607-30q-469 0-498 395-1 15 7 25t21 10h187q24 0 29-29 31-170 264-170 73 0 126.5 16t87.5 56 34 101q0 74-59 118.5T592 570q-76 16-137 36t-122.5 53.5-102.5 76-66.5 106T138 983q0 173 122 275t359 102q211 0 329-90.5T1084 985q1-15-6.5-24.5T1056 951H883q-24 0-29 28-28 150-241 150-108 0-164.5-40T392 974q0-67 57-113t208-78q60-13 101.5-24t94-29 88-38.5T1013 640t58.5-68.5T1107 483t14-113q0-194-131.5-297T607-30z"/><glyph glyph-name="scaron" unicode="š" vert-adv-y="1980" d="M744 1191H486q-21 0-36 16l-223 264q-12 15-6.5 25.5T245 1507h193q23 0 36-16l141-160 141 160q13 16 36 16h193q19 0 24.5-10.5t-6.5-25.5l-223-264q-15-16-36-16zM632 586q175-22 253-51 191-70 191-253 0-145-118-226T614-25q-96 0-175 15.5T298 37t-99.5 83T154 242q-1 14 7.5 22t22.5 8h181q24 0 30-21 29-85 223-85 212 0 212 114 0 58-53.5 81.5T596 401q-43 5-72 9.5t-72 13-72 19.5-64.5 26.5T257 507t-43.5 49.5-30.5 65-10 81.5q0 144 112 225.5t326 81.5q188 0 309.5-64.5T1056 749q1-14-7.5-22t-22.5-8H846q-24 0-30 21-11 36-68 57.5T605 819q-187 0-187-110 0-58 49.5-83.5T632 586z"/><glyph glyph-name="uni0162" unicode="Ţ" vert-adv-y="1980" d="M130 1340h970q14 0 22-8t8-22v-172q0-14-8-22t-22-8H746V30q0-14-8-22t-22-8h-8l-75-69q72-6 124.5-49T810-232q0-84-52.5-135.5T629-433t-164 1q-18 3-18 22v88q0 10 6 15.5t16 4.5q79-12 123.5 5t44.5 53q0 21-22.5 36.5t-59.5 18-84-16.5q-11-4-17.5-.5T447-192v91q0 14 10 24l80 77h-23q-14 0-22 8t-8 22v1078H130q-14 0-22 8t-8 22v172q0 14 8 22t22 8z"/><glyph glyph-name="uni0163" unicode="ţ" vert-adv-y="1980" d="M1095 252q41-41 46-68.5t-16-51.5q-29-43-104.5-90.5T838-20l-53-49q72-6 124.5-49T962-232q0-84-52.5-135.5T781-433t-164 1q-18 3-18 22v88q0 10 6 15.5t16 4.5q79-12 123.5 5t44.5 53q0 21-22.5 36.5t-59.5 18-84-16.5q-11-4-17.5-.5T599-192v91q0 14 10 24l63 61Q613-5 564.5 20t-92 69.5-68 117.5T380 375v400H105q-13 0-21.5 8.5T75 805v145q0 14 8.5 22t21.5 8h275v280q0 14 8 22t22 8h192q14 0 22-8t8-22V980h414q14 0 22-8t8-22V805q0-13-8-21.5t-22-8.5H632V413q0-117 53-164.5T816 201q100 0 190 75 19 19 36.5 15t52.5-39z"/><glyph glyph-name="Tcaron" unicode="Ť" vert-adv-y="1980" d="M744 1541H486q-21 0-36 16l-223 264q-12 15-6.5 25.5T245 1857h193q23 0 36-16l141-160 141 160q13 16 36 16h193q19 0 24.5-10.5t-6.5-25.5l-223-264q-15-16-36-16zM716 0H514q-14 0-22 8t-8 22v1078H130q-14 0-22 8t-8 22v172q0 14 8 22t22 8h970q14 0 22-8t8-22v-172q0-14-8-22t-22-8H746V30q0-14-8-22t-22-8z"/><glyph glyph-name="tcaron" unicode="ť" vert-adv-y="1980" d="M995 1651h168q17 0 24-9t0-25l-120-252q-11-24-34-24H865q-17 0-24 9t0 25l120 252q11 24 34 24zm11-1375q19 19 36.5 15t52.5-39q41-41 46-68.5t-16-51.5q-14-20-41.5-44t-71-51T904-7.5 767-25q-54 0-104.5 10t-103 37.5-91.5 71-63.5 116T380 375v400H105q-13 0-21.5 8.5T75 805v145q0 14 8.5 22t21.5 8h275v280q0 14 8 22t22 8h192q14 0 22-8t8-22V980h414q14 0 22-8t8-22V805q0-13-8-21.5t-22-8.5H632V413q0-117 53-164.5T816 201q100 0 190 75z"/><glyph glyph-name="Tbar" unicode="Ŧ" vert-adv-y="1980" d="M130 1340h970q14 0 22-8t8-22v-172q0-14-8-22t-22-8H746V913h200q14 0 22-8.5t8-21.5V746q0-14-8-22t-22-8H746V30q0-14-8-22t-22-8H514q-14 0-22 8t-8 22v686H284q-14 0-22 8t-8 22v137q0 13 8 21.5t22 8.5h200v195H130q-14 0-22 8t-8 22v172q0 14 8 22t22 8z"/><glyph glyph-name="tbar" unicode="ŧ" vert-adv-y="1980" d="M1095 252q41-41 46-68.5t-16-51.5q-14-20-41.5-44t-71-51T904-7.5 767-25q-54 0-104.5 10t-103 37.5-91.5 71-63.5 116T380 375v121H105q-13 0-21.5 8T75 526v124q0 14 8.5 22t21.5 8h275v95H105q-13 0-21.5 8.5T75 805v145q0 14 8.5 22t21.5 8h275v280q0 14 8 22t22 8h192q14 0 22-8t8-22V980h414q14 0 22-8t8-22V805q0-13-8-21.5t-22-8.5H632v-95h412q14 0 22-8t8-22V526q0-14-8-22t-22-8H632v-83q0-117 53-164.5T816 201q100 0 190 75 19 19 36.5 15t52.5-39z"/><glyph glyph-name="Umacron" unicode="Ū" vert-adv-y="1980" d="M882 1660H348q-14 0-22 8t-8 22v137q0 13 8 21.5t22 8.5h534q14 0 22-8.5t8-21.5v-137q0-14-8-22t-22-8zM615-30Q378-30 253 91.5T128 454v856q0 14 8 22t22 8h201q13 0 21.5-8t8.5-22V475q0-123 57-189t169-66 169 66 57 189v835q0 14 8.5 22t21.5 8h201q14 0 22-8t8-22V454q0-241-125-362.5T615-30z"/><glyph glyph-name="umacron" unicode="ū" vert-adv-y="1980" d="M882 1310H348q-14 0-22 8t-8 22v137q0 13 8 21.5t22 8.5h534q14 0 22-8.5t8-21.5v-137q0-14-8-22t-22-8zm-18-320h192q14 0 22-8t8-22V30q0-14-8-22t-22-8H872q-28 0-30 30l-8 143h-31Q765 88 687.5 34T500-20Q340-20 242 92t-98 306v562q0 14 8 22t22 8h192q14 0 22-8t8-22V446q0-108 57.5-170.5T615 213q103 0 161 62.5T834 446v514q0 14 8 22t22 8z"/><glyph glyph-name="Ubreve" unicode="Ŭ" vert-adv-y="1980" d="M615 1543q-141 0-226.5 80T291 1826q-3 31 29 31h105q26 0 32-29 12-50 53-85.5t105-35.5 105.5 35.5T773 1828q6 29 32 29h105q33 0 30-31-13-123-98.5-203T615 1543zm0-1573Q378-30 253 91.5T128 454v856q0 14 8 22t22 8h201q13 0 21.5-8t8.5-22V475q0-123 57-189t169-66 169 66 57 189v835q0 14 8.5 22t21.5 8h201q14 0 22-8t8-22V454q0-241-125-362.5T615-30z"/><glyph glyph-name="ubreve" unicode="ŭ" vert-adv-y="1980" d="M615 1193q-141 0-226.5 80T291 1476q-3 31 29 31h105q26 0 32-29 12-50 53-85.5t105-35.5 105.5 35.5T773 1478q6 29 32 29h105q33 0 30-31-13-123-98.5-203T615 1193zm249-203h192q14 0 22-8t8-22V30q0-14-8-22t-22-8H872q-28 0-30 30l-8 143h-31Q765 88 687.5 34T500-20Q340-20 242 92t-98 306v562q0 14 8 22t22 8h192q14 0 22-8t8-22V446q0-108 57.5-170.5T615 213q103 0 161 62.5T834 446v514q0 14 8 22t22 8z"/><glyph glyph-name="Uring" unicode="Ů" vert-adv-y="1980" d="M615 1463q-84 0-142 58t-58 139 57.5 139 142.5 58q83 0 140.5-58t57.5-139q0-80-57.5-138.5T615 1463zm0 136q27 0 46 17.5t18 44.5q-1 28-19.5 45t-44.5 17q-28 0-46-17t-18-45 18-45 46-17zm0-1629Q378-30 253 91.5T128 454v856q0 14 8 22t22 8h201q13 0 21.5-8t8.5-22V475q0-123 57-189t169-66 169 66 57 189v835q0 14 8.5 22t21.5 8h201q14 0 22-8t8-22V454q0-241-125-362.5T615-30z"/><glyph glyph-name="uring" unicode="ů" vert-adv-y="1980" d="M615 1113q-84 0-142 58t-58 139 57.5 139 142.5 58q83 0 140.5-58t57.5-139q0-80-57.5-138.5T615 1113zm0 260q-28 0-46-17t-18-45 18-45 46-17q27 0 46 17.5t18 44.5q-1 28-19.5 45t-44.5 17zm249-383h192q14 0 22-8t8-22V30q0-14-8-22t-22-8H872q-28 0-30 30l-8 143h-31Q765 88 687.5 34T500-20Q340-20 242 92t-98 306v562q0 14 8 22t22 8h192q14 0 22-8t8-22V446q0-108 57.5-170.5T615 213q103 0 161 62.5T834 446v514q0 14 8 22t22 8z"/><glyph glyph-name="Uhungarumlaut" unicode="Ű" vert-adv-y="1980" d="M517 1547H349q-17 0-24 9t0 25l120 252q11 24 34 24h168q17 0 24-9t0-25l-120-252q-11-24-34-24zm358 0H707q-17 0-24 9t0 25l120 252q11 24 34 24h168q17 0 24-9t0-25l-120-252q-11-24-34-24zM615-30Q378-30 253 91.5T128 454v856q0 14 8 22t22 8h201q13 0 21.5-8t8.5-22V475q0-123 57-189t169-66 169 66 57 189v835q0 14 8.5 22t21.5 8h201q14 0 22-8t8-22V454q0-241-125-362.5T615-30z"/><glyph glyph-name="uhungarumlaut" unicode="ű" vert-adv-y="1980" d="M517 1197H349q-17 0-24 9t0 25l120 252q11 24 34 24h168q17 0 24-9t0-25l-120-252q-11-24-34-24zm358 0H707q-17 0-24 9t0 25l120 252q11 24 34 24h168q17 0 24-9t0-25l-120-252q-11-24-34-24zm-11-207h192q14 0 22-8t8-22V30q0-14-8-22t-22-8H872q-28 0-30 30l-8 143h-31Q765 88 687.5 34T500-20Q340-20 242 92t-98 306v562q0 14 8 22t22 8h192q14 0 22-8t8-22V446q0-108 57.5-170.5T615 213q103 0 161 62.5T834 446v514q0 14 8 22t22 8z"/><glyph glyph-name="Uogonek" unicode="Ų" vert-adv-y="1980" d="M871 1340h201q14 0 22-8t8-22V454q0-380-306-462v-1q-80-20-116-47.5T644-132q0-46 33.5-72.5T777-231h46q20 0 20-20v-116q0-20-20-20h-60q-43 0-82.5 5.5T600-361t-70.5 38.5-48.5 62-19 88.5q0 98 75 146Q337-7 232.5 113.5T128 454v856q0 14 8 22t22 8h201q13 0 21.5-8t8.5-22V475q0-123 57-189t169-66 169 66 57 189v835q0 14 8.5 22t21.5 8z"/><glyph glyph-name="uogonek" unicode="ų" vert-adv-y="1980" d="M1056 0q-87 0-129.5-30T884-111q0-48 37-76.5t104-28.5h37q20 0 20-20v-116q0-20-20-20h-59q-55 0-103.5 10.5t-95.5 34-74.5 70.5T702-145Q702 0 840 58l-6 115h-31Q765 88 687.5 34T500-20Q340-20 242 92t-98 306v562q0 14 8 22t22 8h192q14 0 22-8t8-22V446q0-108 57.5-170.5T615 213q103 0 161 62.5T834 446v514q0 14 8 22t22 8h192q14 0 22-8t8-22V30q0-14-8-22t-22-8z"/><glyph glyph-name="Wcircumflex" unicode="Ŵ" vert-adv-y="1980" d="M438 1541H245q-19 0-24.5 11t6.5 25l223 264q14 16 36 16h258q22 0 36-16l223-264q12-14 6.5-25t-24.5-11H792q-23 0-36 16l-141 161-141-161q-13-16-36-16zm520-201h181q29 0 24-34L1012 24q-1-11-13-17.5T974 0H746q-31 0-34 24l-97 659-97-659q-3-24-34-24H256q-13 0-25 6.5T218 24L67 1306q-3 34 24 34h181q31 0 34-24l90-975 135 855q4 24 34 24h100q30 0 34-24l135-855 90 975q3 24 34 24z"/><glyph glyph-name="wcircumflex" unicode="ŵ" vert-adv-y="1980" d="M436 1191H243q-19 0-24.5 11t6.5 25l223 264q14 16 36 16h258q22 0 36-16l223-264q12-14 6.5-25t-24.5-11H790q-23 0-36 16l-141 161-141-161q-13-16-36-16zm544-201h159q30 0 24-34L989 24q-5-24-36-24H766q-30 0-36 24L615 633 500 24q-6-24-36-24H277q-31 0-36 24L67 956q-6 34 24 34h159q13 0 24-6.5t12-17.5l99-674 134 664q5 24 36 24h120q31 0 36-24l134-664 99 674q1 11 12 17.5t24 6.5z"/><glyph glyph-name="Ycircumflex" unicode="Ŷ" vert-adv-y="1980" d="M438 1541H245q-19 0-24.5 11t6.5 25l223 264q14 16 36 16h258q22 0 36-16l223-264q12-14 6.5-25t-24.5-11H792q-23 0-36 16l-141 161-141-161q-13-16-36-16zm491-201h212q18 0 23.5-10t-3.5-26L746 518V30q0-14-8-22t-22-8H514q-14 0-22 8t-8 22v492L69 1304q-9 16-3.5 26t23.5 10h213q25 0 36-20l277-553 278 553q10 20 36 20z"/><glyph glyph-name="ycircumflex" unicode="ŷ" vert-adv-y="1980" d="M438 1191H245q-19 0-24.5 11t6.5 25l223 264q14 16 36 16h258q22 0 36-16l223-264q12-14 6.5-25t-24.5-11H792q-23 0-36 16l-141 161-141-161q-13-16-36-16zm473-201h192q17 0 24-9t0-25L603-356q-9-24-36-24H375q-17 0-24 9t0 25L490-3 103 956q-7 16 0 25t24 9h192q27 0 36-24l260-681 260 681q9 24 36 24z"/><glyph glyph-name="Ydieresis" unicode="Ÿ" vert-adv-y="1980" d="M402 1598q-53 0-90.5 38t-37.5 93q0 53 37.5 90.5T402 1857t91-37.5 38-90.5q0-55-37.5-93t-91.5-38zm426 0q-53 0-91 38t-38 93q0 53 38 90.5t91 37.5 91-37.5 38-90.5q0-55-38-93t-91-38zm101-258h212q18 0 23.5-10t-3.5-26L746 518V30q0-14-8-22t-22-8H514q-14 0-22 8t-8 22v492L69 1304q-9 16-3.5 26t23.5 10h213q25 0 36-20l277-553 278 553q10 20 36 20z"/><glyph glyph-name="Zacute" unicode="Ź" vert-adv-y="1980" d="M706 1547H538q-17 0-24 9t0 25l120 252q11 24 34 24h168q17 0 24-9t0-25l-120-252q-11-24-34-24zM1074 0H157q-13 0-21.5 8T127 30v182q0 20 12 36l660 860H177q-13 0-21.5 8t-8.5 22v172q0 14 8.5 22t21.5 8h877q14 0 22-8t8-22v-182q0-18-12-36L411 232h663q14 0 22-8t8-22V30q0-14-8-22t-22-8z"/><glyph glyph-name="zacute" unicode="ź" vert-adv-y="1980" d="M706 1197H538q-17 0-24 9t0 25l120 252q11 24 34 24h168q17 0 24-9t0-25l-120-252q-11-24-34-24zm341-237V806q0-24-14-38L478 206h544q14 0 22-8t8-22V30q0-14-8-22t-22-8H208q-14 0-22 8t-8 22v154q0 24 14 38l555 562H203q-13 0-21.5 8t-8.5 22v146q0 14 8.5 22t21.5 8h814q13 0 21.5-8t8.5-22z"/><glyph glyph-name="Zdotaccent" unicode="Ż" vert-adv-y="1980" d="M615 1598q-53 0-91 38t-38 93q0 53 38 90.5t91 37.5 91-37.5 38-90.5q0-55-38-93t-91-38zM1074 0H157q-13 0-21.5 8T127 30v182q0 20 12 36l660 860H177q-13 0-21.5 8t-8.5 22v172q0 14 8.5 22t21.5 8h877q14 0 22-8t8-22v-182q0-18-12-36L411 232h663q14 0 22-8t8-22V30q0-14-8-22t-22-8z"/><glyph glyph-name="zdotaccent" unicode="ż" vert-adv-y="1980" d="M615 1248q-53 0-91 38t-38 93q0 53 38 90.5t91 37.5 91-37.5 38-90.5q0-55-38-93t-91-38zm432-288V806q0-24-14-38L478 206h544q14 0 22-8t8-22V30q0-14-8-22t-22-8H208q-14 0-22 8t-8 22v154q0 24 14 38l555 562H203q-13 0-21.5 8t-8.5 22v146q0 14 8.5 22t21.5 8h814q13 0 21.5-8t8.5-22z"/><glyph glyph-name="Zcaron" unicode="Ž" vert-adv-y="1980" d="M744 1541H486q-21 0-36 16l-223 264q-12 15-6.5 25.5T245 1857h193q23 0 36-16l141-160 141 160q13 16 36 16h193q19 0 24.5-10.5t-6.5-25.5l-223-264q-15-16-36-16zM1074 0H157q-13 0-21.5 8T127 30v182q0 20 12 36l660 860H177q-13 0-21.5 8t-8.5 22v172q0 14 8.5 22t21.5 8h877q14 0 22-8t8-22v-182q0-18-12-36L411 232h663q14 0 22-8t8-22V30q0-14-8-22t-22-8z"/><glyph glyph-name="zcaron" unicode="ž" vert-adv-y="1980" d="M744 1191H486q-21 0-36 16l-223 264q-12 15-6.5 25.5T245 1507h193q23 0 36-16l141-160 141 160q13 16 36 16h193q19 0 24.5-10.5t-6.5-25.5l-223-264q-15-16-36-16zm303-231V806q0-24-14-38L478 206h544q14 0 22-8t8-22V30q0-14-8-22t-22-8H208q-14 0-22 8t-8 22v154q0 24 14 38l555 562H203q-13 0-21.5 8t-8.5 22v146q0 14 8.5 22t21.5 8h814q13 0 21.5-8t8.5-22z"/><glyph glyph-name="longs" unicode="ſ" vert-adv-y="1980" d="M1096 1439q19-7 19-28v-142q0-32-35-27-5 1-25.5 3.5t-38 4.5-46.5 4-57 2q-129 0-198-47t-69-167V30q0-14-8-22t-22-8H424q-14 0-22 8t-8 22v744H145q-13 0-21.5 8t-8.5 22v146q0 14 8.5 22t21.5 8h249v92q0 90 25.5 160.5t68 115 103 73 124.5 40 139 11.5q153 0 242-33z"/><glyph glyph-name="uni018F" unicode="Ə" vert-adv-y="1980" d="M617 1360q140 0 232.5-32.5t156.5-113 92-213.5 28-336q0-269-53.5-421t-163-213.5T611-30Q343-29 223.5 98.5T104 507v175q0 14 8 22t22 8h739q-3 126-20.5 206T799 1039t-79.5 55-111.5 14q-119 0-174-36.5T361 927q-4-26-35-26H143q-30 0-28 32 14 230 135.5 328.5T617 1360zm-6-1139q57 0 96 10.5t72.5 38.5 54 82T864 490H350q3-153 61.5-211T611 221z"/><glyph glyph-name="florin" unicode="ƒ" vert-adv-y="1980" d="M888 1472q98 0 186-17.5t88-48.5v-137q0-15-10-23t-26-5q-2 0-23 4.5t-38 7-50 5-68 2.5q-96 0-150.5-48.5T742 1043v-63h347q13 0 21.5-8t8.5-22V804q0-14-8.5-22t-21.5-8H742V388q0-398-399-398-98 0-186.5 17.5T68 56v137q0 15 10 23t26 5q1 0 23-4.5t38.5-7 49.5-5 69-2.5q97 0 151.5 48.5T490 419v355H129q-13 0-21.5 8T99 804v146q0 14 8.5 22t21.5 8h361v94q0 398 398 398z"/><glyph glyph-name="uni01CD" unicode="Ǎ" vert-adv-y="1980" d="M450 1557l-223 264q-12 15-6.5 25.5T245 1857h193q23 0 36-16l141-160 141 160q13 16 36 16h193q19 0 24.5-10.5t-6.5-25.5l-223-264q-15-16-36-16H486q-21 0-36 16zm362-241L1162 34q8-34-24-34H934q-29 0-34 24l-60 237H390L330 24q-5-24-34-24H93Q59 0 69 34l349 1282q8 24 35 24h324q27 0 35-24zm-215-246L447 484h336l-150 586h-36z"/><glyph glyph-name="uni01CE" unicode="ǎ" vert-adv-y="1980" d="M459 1207l-223 264q-12 15-7 25.5t25 10.5h193q23 0 36-16l141-160 141 160q13 16 36 16h193q20 0 25-10.5t-7-25.5l-223-264q-15-16-36-16H495q-21 0-36 16zm629-1035q15-11 22-17.5t12-19.5 5-31V70q0-85-115-85-78 0-129.5 44.5T831 160v21h-16Q785 94 701 34.5T483-25h-50q-148 0-233 77.5T115 271q0 267 312 287l377 25v53q0 98-43.5 134.5T603 807q-97 0-144.5-24T403 701q-3-21-28-21H193q-31 0-29 30 7 300 445 300 164 0 262.5-44t139-126 40.5-213V289q0-56 8.5-79t28.5-38zm-567-5h30q66 0 121.5 20t93.5 66.5T804 366v59l-315-23q-129-10-129-115 0-120 161-120z"/><glyph glyph-name="uni01CF" unicode="Ǐ" vert-adv-y="1980" d="M744 1541H486q-21 0-36 16l-223 264q-12 15-6.5 25.5T245 1857h193q23 0 36-16l141-160 141 160q13 16 36 16h193q19 0 24.5-10.5t-6.5-25.5l-223-264q-15-16-36-16zM1069 0H161q-13 0-21.5 8T131 30v172q0 14 8.5 22t21.5 8h323v876H161q-13 0-21.5 8t-8.5 22v172q0 14 8.5 22t21.5 8h908q13 0 21.5-8t8.5-22v-172q0-14-8.5-22t-21.5-8H746V232h323q13 0 21.5-8t8.5-22V30q0-14-8.5-22T1069 0z"/><glyph glyph-name="uni01D0" unicode="ǐ" vert-adv-y="1980" d="M440 1207l-223 264q-12 15-6.5 25.5T235 1507h193q23 0 36-16l141-160 141 160q13 16 36 16h193q19 0 24.5-10.5T993 1471l-223-264q-15-16-36-16H476q-21 0-36 16zM895 207h153q14 0 22-8.5t8-21.5V30q0-14-8-22t-22-8H796Q650 0 573 81t-77 229v473H187q-13 0-21.5 8.5T157 813v147q0 14 8.5 22t21.5 8h531q14 0 22-8t8-22V356q0-149 147-149z"/><glyph glyph-name="uni01D1" unicode="Ǒ" vert-adv-y="1980" d="M744 1541H486q-21 0-36 16l-223 264q-12 15-6.5 25.5T245 1857h193q23 0 36-16l141-160 141 160q13 16 36 16h193q19 0 24.5-10.5t-6.5-25.5l-223-264q-15-16-36-16zM615-30q-267 0-387 163T108 665t120 532 387 163 387-163 120-532-120-532T615-30zm0 250q50 0 87 11t70 40.5 53.5 79.5 32 128.5T869 665t-11.5 185.5-32 128.5-53.5 79.5-70 40.5-87 11-87-11-70-40.5-53.5-79.5-32-128.5T361 665t11.5-185.5 32-128.5 53.5-79.5 70-40.5 87-11z"/><glyph glyph-name="uni01D2" unicode="ǒ" vert-adv-y="1980" d="M744 1191H486q-21 0-36 16l-223 264q-12 15-6.5 25.5T245 1507h193q23 0 36-16l141-160 141 160q13 16 36 16h193q19 0 24.5-10.5t-6.5-25.5l-223-264q-15-16-36-16zM615-25q-220 0-364.5 148T106 493q0 221 144.5 369T615 1010t365-148 145-369-145-369.5T615-25zm0 234q115 0 189.5 79T879 493t-74 204.5T615 776t-190-78.5T351 493t74.5-205T615 209z"/><glyph glyph-name="uni01D3" unicode="Ǔ" vert-adv-y="1980" d="M744 1541H486q-21 0-36 16l-223 264q-12 15-6.5 25.5T245 1857h193q23 0 36-16l141-160 141 160q13 16 36 16h193q19 0 24.5-10.5t-6.5-25.5l-223-264q-15-16-36-16zM615-30Q378-30 253 91.5T128 454v856q0 14 8 22t22 8h201q13 0 21.5-8t8.5-22V475q0-123 57-189t169-66 169 66 57 189v835q0 14 8.5 22t21.5 8h201q14 0 22-8t8-22V454q0-241-125-362.5T615-30z"/><glyph glyph-name="uni01D4" unicode="ǔ" vert-adv-y="1980" d="M450 1207l-223 264q-12 15-6.5 25.5T245 1507h193q23 0 36-16l141-160 141 160q13 16 36 16h193q19 0 24.5-10.5t-6.5-25.5l-223-264q-15-16-36-16H486q-21 0-36 16zm414-217h192q14 0 22-8t8-22V30q0-14-8-22t-22-8H872q-28 0-30 30l-8 143h-31Q765 88 687.5 34T500-20Q340-20 242 92t-98 306v562q0 14 8 22t22 8h192q14 0 22-8t8-22V446q0-108 57.5-170.5T615 213q103 0 161 62.5T834 446v514q0 14 8 22t22 8z"/><glyph glyph-name="uni01EA" unicode="Ǫ" vert-adv-y="1980" d="M812-3v-6q-87-20-125-47t-38-76q0-46 33.5-72.5T782-231h46q20 0 20-20v-116q0-20-20-20h-60q-43 0-82.5 5.5T605-361t-70.5 38.5-48.5 62-19 88.5q0 98 75 145Q315-7 211.5 157.5T108 665q0 369 120 532t387 163 387-163 120-532q0-293-74.5-454T812-3zM361 665q0-107 11.5-185.5t32-128.5 53.5-79.5 70-40.5 87-11 87 11 70 40.5 53.5 79.5 32 128.5T869 665t-11.5 185.5-32 128.5-53.5 79.5-70 40.5-87 11-87-11-70-40.5-53.5-79.5-32-128.5T361 665z"/><glyph glyph-name="uni01EB" unicode="ǫ" vert-adv-y="1980" d="M752-8v-1q-79-19-115.5-46.5T600-132q0-46 33.5-72.5T733-231h46q20 0 20-20v-116q0-20-20-20h-60q-43 0-82.5 5.5T556-361t-70.5 38.5-48.5 62-19 88.5q0 110 94 157-181 34-293.5 174T106 493q0 221 144.5 369T615 1010t365-148 145-369q0-183-103-320T752-8zM351 493q0-126 74.5-205T615 209t189.5 79T879 493t-74 204.5T615 776t-190-78.5T351 493z"/><glyph glyph-name="uni0218" unicode="Ș" vert-adv-y="1980" d="M607-30q-469 0-498 395-1 15 7 25t21 10h187q24 0 29-29 31-170 264-170 73 0 126.5 16t87.5 56 34 101q0 74-59 118.5T592 570q-76 16-137 36t-122.5 53.5-102.5 76-66.5 106T138 983q0 173 122 275t359 102q211 0 329-90.5T1084 985q1-15-6.5-24.5T1056 951H883q-24 0-29 28-28 150-241 150-108 0-164.5-40T392 974q0-67 57-113t208-78q60-13 101.5-24t94-29 88-38.5T1013 640t58.5-68.5T1107 483t14-113q0-194-131.5-297T607-30zM403-174h414q28 0 28-28v-79q0-269-36-423-4-21-32-21H649q-29 0-26 30 15 165 14 327H403q-13 0-20.5 7.5T375-341v139q0 28 28 28z"/><glyph glyph-name="uni0219" unicode="ș" vert-adv-y="1980" d="M632 586q175-22 253-51 191-70 191-253 0-145-118-226T614-25q-96 0-175 15.5T298 37t-99.5 83T154 242q-1 14 7.5 22t22.5 8h181q24 0 30-21 29-85 223-85 212 0 212 114 0 58-53.5 81.5T596 401q-43 5-72 9.5t-72 13-72 19.5-64.5 26.5T257 507t-43.5 49.5-30.5 65-10 81.5q0 144 112 225.5t326 81.5q188 0 309.5-64.5T1056 749q1-14-7.5-22t-22.5-8H846q-24 0-30 21-11 36-68 57.5T605 819q-187 0-187-110 0-58 49.5-83.5T632 586zM405-174h414q28 0 28-28v-79q0-269-36-423-4-21-32-21H651q-29 0-26 30 15 165 14 327H405q-13 0-20.5 7.5T377-341v139q0 28 28 28z"/><glyph glyph-name="uni021A" unicode="Ț" vert-adv-y="1980" d="M716 0H514q-14 0-22 8t-8 22v1078H130q-14 0-22 8t-8 22v172q0 14 8 22t22 8h970q14 0 22-8t8-22v-172q0-14-8-22t-22-8H746V30q0-14-8-22t-22-8zM405-174h414q28 0 28-28v-79q0-269-36-423-4-21-32-21H651q-29 0-26 30 15 165 14 327H405q-13 0-20.5 7.5T377-341v139q0 28 28 28z"/><glyph glyph-name="uni021B" unicode="ț" vert-adv-y="1980" d="M1095 252q41-41 46-68.5t-16-51.5q-14-20-41.5-44t-71-51T904-7.5 767-25q-54 0-104.5 10t-103 37.5-91.5 71-63.5 116T380 375v400H105q-13 0-21.5 8.5T75 805v145q0 14 8.5 22t21.5 8h275v280q0 14 8 22t22 8h192q14 0 22-8t8-22V980h414q14 0 22-8t8-22V805q0-13-8-21.5t-22-8.5H632V413q0-117 53-164.5T816 201q100 0 190 75 19 19 36.5 15t52.5-39zM557-174h414q28 0 28-28v-79q0-269-36-423-4-21-32-21H803q-29 0-26 30 15 165 14 327H557q-13 0-20.5 7.5T529-341v139q0 28 28 28z"/><glyph glyph-name="uni0237" unicode="ȷ" vert-adv-y="1980" d="M501-385q-65 0-126.5 13t-105 33-74.5 43.5-42 45.5-2 37l72 120q16 27 47 7 104-68 209-68 43 0 79 10.5t69 35 52 72T698 77v706H260q-14 0-22 8.5t-8 21.5v147q0 14 8 22t22 8h660q14 0 22-8t8-22V50q0-98-28-175.5t-73-125-105.5-79-120-43.5T501-385z"/><glyph glyph-name="uni0259" unicode="ə" vert-adv-y="1980" d="M579 1015q238 0 383.5-143.5T1108 496q0-230-140-373T600-20q-222 0-350 136T122 468q0 54 17.5 76.5T212 567l655-1q-8 118-93 183t-223 65q-128 0-231-56-23-13-41-7t-44 39q-30 37-32.5 58t21.5 46q56 55 148.5 88t206.5 33zm20-821q105 0 172.5 52T858 397H345q14-100 81-152t173-51z"/><glyph glyph-name="circumflex" unicode="ˆ" vert-adv-y="1980" d="M438 1181H245q-19 0-24.5 11t6.5 25l223 264q14 16 36 16h258q22 0 36-16l223-264q12-14 6.5-25t-24.5-11H792q-23 0-36 16l-141 161-141-161q-13-16-36-16z"/><glyph glyph-name="caron" unicode="ˇ" vert-adv-y="1980" d="M744 1181H486q-21 0-36 16l-223 264q-12 15-6.5 25.5T245 1497h193q23 0 36-16l141-160 141 160q13 16 36 16h193q19 0 24.5-10.5t-6.5-25.5l-223-264q-15-16-36-16z"/><glyph glyph-name="breve" unicode="˘" vert-adv-y="1980" d="M615 1183q-141 0-226.5 80T291 1466q-3 31 29 31h105q26 0 32-29 12-50 53-85.5t105-35.5 105.5 35.5T773 1468q6 29 32 29h105q33 0 30-31-13-123-98.5-203T615 1183z"/><glyph glyph-name="dotaccent" unicode="˙" vert-adv-y="1980" d="M615 1238q-53 0-91 38t-38 93q0 53 38 90.5t91 37.5 91-37.5 38-90.5q0-55-38-93t-91-38z"/><glyph glyph-name="ring" unicode="˚" vert-adv-y="1980" d="M617 1103q-84 0-142 58t-58 139 57.5 139 142.5 58q83 0 140.5-58t57.5-139q0-80-57.5-138.5T617 1103zm0 136q27 0 46 17.5t18 44.5q-1 28-19.5 45t-44.5 17q-28 0-46-17t-18-45 18-45 46-17z"/><glyph glyph-name="ogonek" unicode="˛" vert-adv-y="1980" d="M820-372h-59q-55 0-103.5 10.5t-95.5 34-74.5 70.5T460-145q0 70 32 119.5t87 74 112 35T814 94V0q-87 0-129.5-30T642-111q0-48 37-76.5T783-216h37q20 0 20-20v-116q0-20-20-20z"/><glyph glyph-name="tilde" unicode="˜" vert-adv-y="1980" d="M784 1208q-46 0-85.5 15t-68 36.5-54.5 43-55.5 36.5-60.5 15q-36 0-59-17.5t-33-41.5q-6-17-22-17h-94q-21 0-19 26 0 98 62.5 147.5T444 1501q56 0 105-23t78-50 67-50 75-23q68 0 92 60 6 16 22 16h94q21 0 21-20-1-52-19.5-92t-49.5-63.5-67.5-35.5-77.5-12z"/><glyph glyph-name="hungarumlaut" unicode="˝" vert-adv-y="1980" d="M454 1187H286q-17 0-24 9t0 25l120 252q11 24 34 24h168q17 0 24-9t0-25l-120-252q-11-24-34-24zm358 0H644q-17 0-24 9t0 25l120 252q11 24 34 24h168q17 0 24-9t0-25l-120-252q-11-24-34-24z"/><glyph glyph-name="uni0326" unicode="̦" horiz-adv-x="0" vert-adv-y="1980" d="M-825-174h414q28 0 28-28v-79q0-269-36-423-4-21-32-21h-128q-29 0-26 30 15 165 14 327h-234q-13 0-20.5 7.5T-853-341v139q0 28 28 28z"/><glyph glyph-name="uni0374" unicode="ʹ" vert-adv-y="1980" d="M634 1187H466q-17 0-24 9t0 25l120 252q11 24 34 24h168q17 0 24-9t0-25l-120-252q-11-24-34-24z"/><glyph glyph-name="uni0375" unicode="͵" vert-adv-y="1980" d="M634 97H466q-17 0-24 9t0 25l120 252q11 24 34 24h168q17 0 24-9t0-25L668 121q-11-24-34-24z"/><glyph glyph-name="uni037E" unicode=";" vert-adv-y="1980" d="M615 620q-81 0-139 57.5T418 816q0 82 58 139.5t139 57.5 139-57.5T812 816q0-81-58-138.5T615 620zM392 212h453q13 0 21.5-8t8.5-22V95q0-294-39-463-4-22-35-22H662q-32 0-29 32 17 204 15 358H392q-14 0-22 8t-8 22v152q0 14 8 22t22 8z"/><glyph glyph-name="tonos" unicode="΄" vert-adv-y="1980" d="M634 1187H466q-17 0-24 9t0 25l120 252q11 24 34 24h168q17 0 24-9t0-25l-120-252q-11-24-34-24z"/><glyph glyph-name="dieresistonos" unicode="΅" vert-adv-y="1980" d="M647 1090H479q-17 0-24 9t0 25l120 252q11 24 34 24h168q17 0 24-9t0-25l-120-252q-11-24-34-24zm-359 0q-53 0-90.5 38t-37.5 93q0 53 37.5 90.5T288 1349t91-37.5 38-90.5q0-55-38-93t-91-38zm654 0q-53 0-91 38t-38 93q0 53 38 90.5t91 37.5 91-37.5 38-90.5q0-55-38-93t-91-38z"/><glyph glyph-name="Alphatonos" unicode="Ά" vert-adv-y="1980" d="M306 1306l-120-252q-11-24-34-24H-16q-17 0-24 9t0 25l120 252q11 24 34 24h168q17 0 24-9t0-25zm506 10L1162 34q8-34-24-34H934q-29 0-34 24l-60 237H390L330 24q-5-24-34-24H93Q59 0 69 34l349 1282q8 24 35 24h324q27 0 35-24zm-215-246L447 484h336l-150 586h-36z"/><glyph glyph-name="anoteleia" unicode="·" vert-adv-y="1980" d="M615 421q-81 0-139 57.5T418 618q0 81 58 138.5T615 814t139-57.5T812 618q0-82-58-139.5T615 421z"/><glyph glyph-name="Epsilontonos" unicode="Έ" vert-adv-y="1980" d="M-85 1030h-168q-17 0-24 9t0 25l120 252q11 24 34 24H45q17 0 24-9t0-25l-120-252q-11-24-34-24zM1044 0H187q-13 0-21.5 8T157 30v1280q0 14 8.5 22t21.5 8h855q14 0 22-8t8-22v-172q0-14-8-22t-22-8H418V791h579q13 0 21.5-8.5t8.5-21.5V589q0-13-8.5-21.5T997 559H418V232h626q14 0 22-8t8-22V30q0-14-8-22t-22-8z"/><glyph glyph-name="Etatonos" unicode="Ή" vert-adv-y="1980" d="M-142 1340H26q17 0 24-9t0-25l-120-252q-11-24-34-24h-168q-17 0-24 9t0 25l120 252q11 24 34 24zm1003 0h201q14 0 22-8t8-22V30q0-14-8-22t-22-8H861q-13 0-21.5 8T831 30v513H399V30q0-14-8.5-22T369 0H168q-14 0-22 8t-8 22v1280q0 14 8 22t22 8h201q13 0 21.5-8t8.5-22V775h432v535q0 14 8.5 22t21.5 8z"/><glyph glyph-name="Iotatonos" unicode="Ί" vert-adv-y="1980" d="M-105 1030h-168q-17 0-24 9t0 25l120 252q11 24 34 24H25q17 0 24-9t0-25l-120-252q-11-24-34-24zM1069 0H161q-13 0-21.5 8T131 30v172q0 14 8.5 22t21.5 8h323v876H161q-13 0-21.5 8t-8.5 22v172q0 14 8.5 22t21.5 8h908q13 0 21.5-8t8.5-22v-172q0-14-8.5-22t-21.5-8H746V232h323q13 0 21.5-8t8.5-22V30q0-14-8.5-22T1069 0z"/><glyph glyph-name="Omicrontonos" unicode="Ό" vert-adv-y="1980" d="M615-30q-267 0-387 163T108 665t120 532 387 163 387-163 120-532-120-532T615-30zM-17 1030h-168q-17 0-24 9t0 25l120 252q11 24 34 24h168q17 0 24-9t0-25L17 1054q-11-24-34-24zm632-810q50 0 87 11t70 40.5 53.5 79.5 32 128.5T869 665t-11.5 185.5-32 128.5-53.5 79.5-70 40.5-87 11-87-11-70-40.5-53.5-79.5-32-128.5T361 665t11.5-185.5 32-128.5 53.5-79.5 70-40.5 87-11z"/><glyph glyph-name="Upsilontonos" unicode="Ύ" vert-adv-y="1980" d="M-216 1340h168q17 0 24-9t0-25l-120-252q-11-24-34-24h-168q-17 0-24 9t0 25l120 252q11 24 34 24zm1145 0h212q18 0 23.5-10t-3.5-26L746 518V30q0-14-8-22t-22-8H514q-14 0-22 8t-8 22v492L69 1304q-9 16-3.5 26t23.5 10h213q25 0 36-20l277-553 278 553q10 20 36 20z"/><glyph glyph-name="Omegatonos" unicode="Ώ" vert-adv-y="1980" d="M521 0H127Q99 0 99 29v149q0 29 28 29h173v33Q98 347 98 756q0 306 123.5 455T615 1360t393.5-149T1132 756q0-409-202-516v-33h173q28 0 28-29V29q0-29-28-29H709q-29 0-29 29v312q48 16 82.5 41.5t62 70.5 41 117T879 743q0 62-5.5 111T851 953t-45.5 82.5-76.5 53-114 20.5q-65 0-113.5-20.5t-77-53.5-45.5-82.5-22.5-98.5-5.5-111q0-101 13.5-173t41-117 62-70.5T550 341V29q0-29-29-29zM-17 1030h-168q-17 0-24 9t0 25l120 252q11 24 34 24h168q17 0 24-9t0-25L17 1054q-11-24-34-24z"/><glyph glyph-name="iotadieresistonos" unicode="ΐ" vert-adv-y="1980" d="M663 1090H495q-17 0-24 9t0 25l120 252q11 24 34 24h168q17 0 24-9t0-25l-120-252q-11-24-34-24zm-359 0q-53 0-90.5 38t-37.5 93q0 53 37.5 90.5T304 1349t91-37.5 38-90.5q0-55-38-93t-91-38zm654 0q-53 0-91 38t-38 93q0 53 38 90.5t91 37.5 91-37.5 38-90.5q0-55-38-93t-91-38zM816-16q-364 0-364 360v616q0 14 8 22t22 8h192q14 0 22-8t8-22V381q0-95 45.5-133.5T875 209q28 0 60 3 26 2 26-22V22q0-18-17-23-60-15-128-15z"/><glyph glyph-name="Alpha" unicode="Α" vert-adv-y="1980" d="M812 1316L1162 34q8-34-24-34H934q-29 0-34 24l-60 237H390L330 24q-5-24-34-24H93Q59 0 69 34l349 1282q8 24 35 24h324q27 0 35-24zm-215-246L447 484h336l-150 586h-36z"/><glyph glyph-name="Beta" unicode="Β" vert-adv-y="1980" d="M632 0H153q-13 0-21.5 8T123 30v1280q0 14 8.5 22t21.5 8h498q108 0 188.5-26t126.5-72.5 67.5-104T1055 1011q0-106-53-181t-168-99v-20q292-41 292-337 0-185-117-279.5T632 0zM384 1108V815h242q98 0 140.5 38T809 969q0 75-41.5 107T626 1108H384zm0-511V232h254q121 0 173.5 42T864 411q0 93-53 139.5T638 597H384z"/><glyph glyph-name="Gamma" unicode="Γ" vert-adv-y="1980" d="M1054 1340q14 0 22-8t8-22v-172q0-14-8-22t-22-8H428V30q0-14-8-22t-22-8H197q-13 0-21.5 8T167 30v1280q0 14 8.5 22t21.5 8h857z"/><glyph glyph-name="uni0394" unicode="Δ" vert-adv-y="1980" d="M812 1316L1167 34q9-34-24-34H88Q54 0 64 34l354 1282q8 24 35 24h324q27 0 35-24zm-179-246h-36L372 206h486z"/><glyph glyph-name="Epsilon" unicode="Ε" vert-adv-y="1980" d="M1044 0H187q-13 0-21.5 8T157 30v1280q0 14 8.5 22t21.5 8h855q14 0 22-8t8-22v-172q0-14-8-22t-22-8H418V791h579q13 0 21.5-8.5t8.5-21.5V589q0-13-8.5-21.5T997 559H418V232h626q14 0 22-8t8-22V30q0-14-8-22t-22-8z"/><glyph glyph-name="Zeta" unicode="Ζ" vert-adv-y="1980" d="M1074 0H157q-13 0-21.5 8T127 30v182q0 20 12 36l660 860H177q-13 0-21.5 8t-8.5 22v172q0 14 8.5 22t21.5 8h877q14 0 22-8t8-22v-182q0-18-12-36L411 232h663q14 0 22-8t8-22V30q0-14-8-22t-22-8z"/><glyph glyph-name="Eta" unicode="Η" vert-adv-y="1980" d="M861 1340h201q14 0 22-8t8-22V30q0-14-8-22t-22-8H861q-13 0-21.5 8T831 30v513H399V30q0-14-8.5-22T369 0H168q-14 0-22 8t-8 22v1280q0 14 8 22t22 8h201q13 0 21.5-8t8.5-22V775h432v535q0 14 8.5 22t21.5 8z"/><glyph glyph-name="Theta" unicode="Θ" vert-adv-y="1980" d="M615-30q-267 0-387 163T108 665t120 532 387 163 387-163 120-532-120-532T615-30zm0 250q50 0 87 11t70 40.5 53.5 79.5 32 128.5T869 665t-11.5 185.5-32 128.5-53.5 79.5-70 40.5-87 11-87-11-70-40.5-53.5-79.5-32-128.5T361 665t11.5-185.5 32-128.5 53.5-79.5 70-40.5 87-11zm158 346H458q-14 0-22 8t-8 22v138q0 14 8 22t22 8h315q13 0 21.5-8t8.5-22V596q0-14-8.5-22t-21.5-8z"/><glyph glyph-name="Iota" unicode="Ι" vert-adv-y="1980" d="M1069 0H161q-13 0-21.5 8T131 30v172q0 14 8.5 22t21.5 8h323v876H161q-13 0-21.5 8t-8.5 22v172q0 14 8.5 22t21.5 8h908q13 0 21.5-8t8.5-22v-172q0-14-8.5-22t-21.5-8H746V232h323q13 0 21.5-8t8.5-22V30q0-14-8.5-22T1069 0z"/><glyph glyph-name="Kappa" unicode="Κ" vert-adv-y="1980" d="M675 729l489-693q10-15 5-25.5T1146 0H924q-23 0-36 18L522 536 372 346V30q0-14-8-22t-22-8H140q-14 0-22 8t-8 22v1280q0 14 8 22t22 8h202q14 0 22-8t8-22V708l464 616q12 16 36 16h242q19 0 23.5-11t-7.5-25z"/><glyph glyph-name="Lambda" unicode="Λ" vert-adv-y="1980" d="M453 1340h324q27 0 35-24L1167 34q9-34-24-34H939q-29 0-34 24L633 1070h-36L325 24q-5-24-34-24H88Q54 0 64 34l354 1282q8 24 35 24z"/><glyph glyph-name="Mu" unicode="Μ" vert-adv-y="1980" d="M308 0H153q-13 0-21.5 8T123 30v1280q0 14 8.5 22t21.5 8h208q32 0 36-20l211-926h14l211 926q4 20 36 20h208q13 0 21.5-8t8.5-22V30q0-14-8.5-22T1077 0H922q-14 0-22 8t-8 22v779h-14L711 124q-6-24-35-24H555q-30 0-36 24L352 809h-14V30q0-14-8-22t-22-8z"/><glyph glyph-name="Nu" unicode="Ν" vert-adv-y="1980" d="M878 1340h175q13 0 21.5-8t8.5-22V30q0-14-8.5-22T1053 0H825q-27 0-36 20L382 923V30q0-14-8-22t-22-8H177q-13 0-21.5 8T147 30v1280q0 14 8.5 22t21.5 8h229q27 0 36-20l406-902v892q0 14 8 22t22 8z"/><glyph glyph-name="Xi" unicode="Ξ" vert-adv-y="1980" d="M1083 1108H147q-13 0-21.5 8t-8.5 22v172q0 14 8.5 22t21.5 8h936q13 0 21.5-8t8.5-22v-172q0-14-8.5-22t-21.5-8zm-51-538H198q-14 0-22 8t-8 22v173q0 13 8 21.5t22 8.5h834q14 0 22-8.5t8-21.5V600q0-14-8-22t-22-8zm53-570H145q-13 0-21.5 8T115 30v172q0 14 8.5 22t21.5 8h940q13 0 21.5-8t8.5-22V30q0-14-8.5-22T1085 0z"/><glyph glyph-name="Omicron" unicode="Ο" vert-adv-y="1980" d="M615-30q-267 0-387 163T108 665t120 532 387 163 387-163 120-532-120-532T615-30zm0 250q50 0 87 11t70 40.5 53.5 79.5 32 128.5T869 665t-11.5 185.5-32 128.5-53.5 79.5-70 40.5-87 11-87-11-70-40.5-53.5-79.5-32-128.5T361 665t11.5-185.5 32-128.5 53.5-79.5 70-40.5 87-11z"/><glyph glyph-name="Pi" unicode="Π" vert-adv-y="1980" d="M1044 1342q14 0 22-8t8-22V30q0-14-8-22t-22-8H842q-14 0-22 8t-8 22v1079H418V30q0-14-8-22t-22-8H187q-13 0-21.5 8T157 30v1282q0 14 8.5 22t21.5 8h857z"/><glyph glyph-name="Rho" unicode="Ρ" vert-adv-y="1980" d="M170 1340h468q487 0 487-450T638 440H401V30q0-14-8.5-22T371 0H170q-14 0-22 8t-8 22v1280q0 14 8 22t22 8zm231-668h223q126 0 188 49.5T874 890q0 120-62 169t-188 49H401V672z"/><glyph glyph-name="Sigma" unicode="Σ" vert-adv-y="1980" d="M1054 0H177q-13 0-21.5 8T147 30v182q0 21 12 36l346 422-346 422q-12 15-12 36v182q0 14 8.5 22t21.5 8h877q14 0 22-8t8-22v-172q0-14-8-22t-22-8H431l355-438-355-438h623q14 0 22-8t8-22V30q0-14-8-22t-22-8z"/><glyph glyph-name="Tau" unicode="Τ" vert-adv-y="1980" d="M716 0H514q-14 0-22 8t-8 22v1078H130q-14 0-22 8t-8 22v172q0 14 8 22t22 8h970q14 0 22-8t8-22v-172q0-14-8-22t-22-8H746V30q0-14-8-22t-22-8z"/><glyph glyph-name="Upsilon" unicode="Υ" vert-adv-y="1980" d="M929 1340h212q18 0 23.5-10t-3.5-26L746 518V30q0-14-8-22t-22-8H514q-14 0-22 8t-8 22v492L69 1304q-9 16-3.5 26t23.5 10h213q25 0 36-20l277-553 278 553q10 20 36 20z"/><glyph glyph-name="Phi" unicode="Φ" vert-adv-y="1980" d="M733 1201h3q116 0 201.5-42.5t134-118 71-167.5 22.5-203-22.5-203-71-167.5-134-118T736 139h-3V30q0-14-8.5-22T703 0H527q-13 0-21.5 8T497 30v109h-3q-116 0-201.5 42.5t-134 118-71 167.5T65 670t22.5 203 71 167.5 134 118T494 1201h3v109q0 14 8.5 22t21.5 8h176q13 0 21.5-8t8.5-22v-109zM494 372h3v597h-3q-107 0-146.5-73.5T308 670t39.5-225T494 372zm239 0h3q107 0 146.5 73T922 670t-39.5 225.5T736 969h-3V372z"/><glyph glyph-name="Chi" unicode="Χ" vert-adv-y="1980" d="M754 681l389-645q10-16 4-26t-24-10H910q-25 0-36 20L615 450 356 20Q345 0 320 0H108Q90 0 84 10t4 26l388 645-375 623q-10 16-4 26t24 10h212q25 0 36-20l246-408 246 408q11 20 36 20h212q18 0 24-10t-4-26z"/><glyph glyph-name="Psi" unicode="Ψ" vert-adv-y="1980" d="M938 1340h202q14 0 22-8t8-22V829q0-124-29-212.5t-86.5-141T923 396t-177-36V30q0-14-8-22t-22-8H514q-14 0-22 8t-8 22v330q-103 9-177 36t-131.5 79.5-86.5 141T60 829v481q0 14 8 22t22 8h202q14 0 22-8t8-22V826q0-111 34-154.5T484 617v693q0 14 8 22t22 8h202q14 0 22-8t8-22V617q94 11 128 54.5T908 826v484q0 14 8 22t22 8z"/><glyph glyph-name="uni03A9" unicode="Ω" vert-adv-y="1980" d="M521 0H127Q99 0 99 29v149q0 29 28 29h173v33Q98 347 98 756q0 306 123.5 455T615 1360t393.5-149T1132 756q0-409-202-516v-33h173q28 0 28-29V29q0-29-28-29H709q-29 0-29 29v312q48 16 82.5 41.5t62 70.5 41 117T879 743q0 62-5.5 111T851 953t-45.5 82.5-76.5 53-114 20.5q-65 0-113.5-20.5t-77-53.5-45.5-82.5-22.5-98.5-5.5-111q0-101 13.5-173t41-117 62-70.5T550 341V29q0-29-29-29z"/><glyph glyph-name="Iotadieresis" unicode="Ϊ" vert-adv-y="1980" d="M402 1598q-53 0-90.5 38t-37.5 93q0 53 37.5 90.5T402 1857t91-37.5 38-90.5q0-55-37.5-93t-91.5-38zm426 0q-53 0-91 38t-38 93q0 53 38 90.5t91 37.5 91-37.5 38-90.5q0-55-38-93t-91-38zM1069 0H161q-13 0-21.5 8T131 30v172q0 14 8.5 22t21.5 8h323v876H161q-13 0-21.5 8t-8.5 22v172q0 14 8.5 22t21.5 8h908q13 0 21.5-8t8.5-22v-172q0-14-8.5-22t-21.5-8H746V232h323q13 0 21.5-8t8.5-22V30q0-14-8.5-22T1069 0z"/><glyph glyph-name="Upsilondieresis" unicode="Ϋ" vert-adv-y="1980" d="M402 1598q-53 0-90.5 38t-37.5 93q0 53 37.5 90.5T402 1857t91-37.5 38-90.5q0-55-37.5-93t-91.5-38zm426 0q-53 0-91 38t-38 93q0 53 38 90.5t91 37.5 91-37.5 38-90.5q0-55-38-93t-91-38zm101-258h212q18 0 23.5-10t-3.5-26L746 518V30q0-14-8-22t-22-8H514q-14 0-22 8t-8 22v492L69 1304q-9 16-3.5 26t23.5 10h213q25 0 36-20l277-553 278 553q10 20 36 20z"/><glyph glyph-name="alphatonos" unicode="ά" vert-adv-y="1980" d="M703 1197H535q-17 0-24 9t0 25l120 252q11 24 34 24h168q17 0 24-9t0-25l-120-252q-11-24-34-24zm469-1012q19-2 19-19V14q0-40-100-40-93 0-140.5 58.5T898 183Q844 84 754 29T547-26q-198 0-324.5 148T96 493t126.5 371T547 1012q193 0 308-144v92q0 14 8.5 22t21.5 8h192q13 0 21.5-8t8.5-22V293q0-52 14.5-77.5T1172 185zm-575 22q112 0 185 79.5T855 493t-73 206.5T597 779t-185.5-79.5T338 493t73.5-206.5T597 207z"/><glyph glyph-name="epsilontonos" unicode="έ" vert-adv-y="1980" d="M703 1197H535q-17 0-24 9t0 25l120 252q11 24 34 24h168q17 0 24-9t0-25l-120-252q-11-24-34-24zM613-26Q496-26 406-8T263 38.5t-86.5 67-45 74.5-11.5 75q0 80 51.5 144T318 494q-87 31-133 93.5T139 729q0 39 11 75.5t43.5 75.5 83.5 67.5 138 47 200 18.5q247 0 470-80 15-5 15-25V723q0-23-27-13-226 75-452 75-107 0-164.5-21.5T399 687q0-98 190-98h264q30 0 30-29V428q0-13-8.5-21t-21.5-8H589q-208 0-208-97 0-56 61.5-78T618 202q235 0 465 75 27 10 27-13V79q0-20-15-25-227-80-482-80z"/><glyph glyph-name="etatonos" unicode="ή" vert-adv-y="1980" d="M743 1197H575q-17 0-24 9t0 25l120 252q11 24 34 24h168q17 0 24-9t0-25l-120-252q-11-24-34-24zm27-185q160 0 258-112t98-306v-944q0-14-8-22t-22-8H904q-14 0-22 8t-8 22v896q0 108-57.5 170.5T655 779q-103 0-161-62.5T436 546V30q0-14-8-22t-22-8H214q-14 0-22 8t-8 22v663q0 52-14 77.5T120 801q-20 2-20 20v151q0 40 112 40 99 0 156.5-53.5T435 819h32q38 85 115.5 139t187.5 54z"/><glyph glyph-name="iotatonos" unicode="ί" vert-adv-y="1980" d="M665 1197H497q-17 0-24 9t0 25l120 252q11 24 34 24h168q17 0 24-9t0-25l-120-252q-11-24-34-24zM816-16q-364 0-364 360v616q0 14 8 22t22 8h192q14 0 22-8t8-22V381q0-95 45.5-133.5T875 209q28 0 60 3 26 2 26-22V22q0-18-17-23-60-15-128-15z"/><glyph glyph-name="upsilondieresistonos" unicode="ΰ" vert-adv-y="1980" d="M690 1080H522q-17 0-24 9t0 25l120 252q11 24 34 24h168q17 0 24-9t0-25l-120-252q-11-24-34-24zm-359 0q-53 0-90.5 38t-37.5 93q0 53 37.5 90.5T331 1339t91-37.5 38-90.5q0-55-38-93t-91-38zm654 0q-53 0-91 38t-38 93q0 53 38 90.5t91 37.5 91-37.5 38-90.5q0-55-38-93t-91-38zM618-26Q523-26 438.5-.5t-151 74-105 127T144 377v583q0 14 8 22t22 8h192q14 0 22-8t8-22V454q0-117 55-182t169-65q235 0 235 297 0 236-161 459-7 11-3.5 19t15.5 8h221q16 0 26-15 155-246 155-509 0-117-32.5-207t-82-142.5-117.5-86-130-45T618-26z"/><glyph glyph-name="alpha" unicode="α" vert-adv-y="1980" d="M1172 185q19-2 19-19V14q0-40-100-40-93 0-140.5 58.5T898 183Q844 84 754 29T547-26q-198 0-324.5 148T96 493t126.5 371T547 1012q193 0 308-144v92q0 14 8.5 22t21.5 8h192q13 0 21.5-8t8.5-22V293q0-52 14.5-77.5T1172 185zm-575 22q112 0 185 79.5T855 493t-73 206.5T597 779t-185.5-79.5T338 493t73.5-206.5T597 207z"/><glyph glyph-name="beta" unicode="β" vert-adv-y="1980" d="M807 733q313-47 313-353 0-199-131.5-289.5T589 0H362v-350q0-14-8-22t-22-8H140q-14 0-22 8t-8 22V989q0 201 124.5 306T579 1400q212 0 336.5-95.5T1040 1033q0-132-69-209.5T807 733zM362 198h216q154 0 226.5 42.5T877 395q0 118-80 164.5T557 606h-67q-14 0-22 8t-8 22v137q0 13 8 21.5t22 8.5h67q240 0 240 194 0 89-53.5 132T577 1172q-112 0-163.5-43T362 989V198z"/><glyph glyph-name="gamma" unicode="γ" vert-adv-y="1980" d="M1032 975q69-159 69-347 0-114-30.5-211T999 259 896.5 145 794 68t-93-49q-1-1-2-1-2 0-2-1v-367q0-14-8.5-22t-21.5-8H475q-13 0-21.5 8t-8.5 22V78L118 956q-7 16 0 25t24 9h192q27 0 36-24l265-726q104 46 161 154.5T853 646q0 160-71 316-12 28 15 28h211q18 0 24-15z"/><glyph glyph-name="delta" unicode="δ" vert-adv-y="1980" d="M924 912q94-71 147.5-180t53.5-239q0-221-145-369.5T615-25 250.5 123 106 493q0 180 98.5 315T465 989q-43 30-71.5 54t-63.5 61.5-53.5 81T258 1277q0 89 61 151t164 62h458q29 0 29-28v-162q0-29-29-29H592q-61 0-61-42 0-23 22-44t67-53q3-2 5-3t5-3 5-4zM615 209q115 0 189.5 79T879 493t-74 204.5T615 776t-190-78.5T351 493t74.5-205T615 209z"/><glyph glyph-name="epsilon" unicode="ε" vert-adv-y="1980" d="M613-26Q496-26 406-8T263 38.5t-86.5 67-45 74.5-11.5 75q0 80 51.5 144T318 494q-87 31-133 93.5T139 729q0 39 11 75.5t43.5 75.5 83.5 67.5 138 47 200 18.5q247 0 470-80 15-5 15-25V723q0-23-27-13-226 75-452 75-107 0-164.5-21.5T399 687q0-98 190-98h264q30 0 30-29V428q0-13-8.5-21t-21.5-8H589q-208 0-208-97 0-56 61.5-78T618 202q235 0 465 75 27 10 27-13V79q0-20-15-25-227-80-482-80z"/><glyph glyph-name="zeta" unicode="ζ" vert-adv-y="1980" d="M430 491q0-64 21-113t56.5-80 81.5-54.5 96.5-43 101-40.5 96.5-51.5T964.5 38 1021-65t21-145v-140q0-14-8-22t-22-8H820q-14 0-22 8t-8 22v68q0 69-20.5 121.5T714-75t-80 58.5-95 45-100 40-95 49.5-80 67.5-55.5 99T188 423q0 196 121.5 411.5T622 1193H237q-13 0-21.5 8.5T207 1223v147q0 14 8.5 22t21.5 8h668q13 0 21.5-8t8.5-22v-177q-83-33-173.5-110.5T598 908.5 477.5 699 430 491z"/><glyph glyph-name="eta" unicode="η" vert-adv-y="1980" d="M770 1012q160 0 258-112t98-306v-944q0-14-8-22t-22-8H904q-14 0-22 8t-8 22v896q0 108-57.5 170.5T655 779q-103 0-161-62.5T436 546V30q0-14-8-22t-22-8H214q-14 0-22 8t-8 22v663q0 52-14 77.5T120 801q-20 2-20 20v151q0 40 112 40 99 0 156.5-53.5T435 819h32q38 85 115.5 139t187.5 54z"/><glyph glyph-name="theta" unicode="θ" vert-adv-y="1980" d="M615 1360q176 0 285.5-66.5t165.5-220 56-407.5q0-255-56-409T901 36.5 615-30 329 36.5 164 257t-56 409q0 254 56 407.5t165.5 220T615 1360zm0-243q-59 0-101.5-14.5T435 1051t-56.5-107T351 769h528q-7 105-27.5 175T795 1051t-78.5 51.5T615 1117zm0-904q59 0 101.5 14.5T795 279t56.5 107T879 561H351q7-105 27.5-175T435 279t78.5-51.5T615 213z"/><glyph glyph-name="iota" unicode="ι" vert-adv-y="1980" d="M816-16q-364 0-364 360v616q0 14 8 22t22 8h192q14 0 22-8t8-22V381q0-95 45.5-133.5T875 209q28 0 60 3 26 2 26-22V22q0-18-17-23-60-15-128-15z"/><glyph glyph-name="kappa" unicode="κ" vert-adv-y="1980" d="M713 545l446-509q12-15 6.5-25.5T1141 0H908q-23 0-36 16L551 383 390 221V30q0-14-8-22t-22-8H168q-14 0-22 8t-8 22v930q0 14 8 22t22 8h192q14 0 22-8t8-22V530l293 307q92 95 175.5 129t222.5 34V795q-74 0-119-22.5T842 675z"/><glyph glyph-name="lambda" unicode="λ" vert-adv-y="1980" d="M1103 0H911q-27 0-36 24L615 705 355 24q-9-24-36-24H127q-17 0-24 9t0 25l387 959-139 343q-7 16 0 25t24 9h192q27 0 36-24L1127 34q7-16 0-25t-24-9z"/><glyph glyph-name="uni03BC" unicode="μ" vert-adv-y="1980" d="M864 990h192q14 0 22-8t8-22V30q0-14-8-22t-22-8H872q-28 0-30 30l-8 143h-31Q765 88 687.5 34T500-20q-54 0-104 14v-344q0-14-8-22t-22-8H174q-14 0-22 8t-8 22V960q0 14 8 22t22 8h192q14 0 22-8t8-22V446q0-108 57.5-170.5T615 213q103 0 161 62.5T834 446v514q0 14 8 22t22 8z"/><glyph glyph-name="nu" unicode="ν" vert-adv-y="1980" d="M1052 975q69-159 69-347 0-114-30.5-211T1019 259 916.5 145 814 68t-93-49Q681 0 651 0H521q-27 0-36 24L138 956q-7 16 0 25t24 9h192q27 0 36-24l265-726q104 46 161 154.5T873 646q0 160-71 316-12 28 15 28h211q18 0 24-15z"/><glyph glyph-name="xi" unicode="ξ" vert-adv-y="1980" d="M735 198q56 0 95.5-4.5t87-22.5 76.5-50 49-91.5 20-143.5v-236q0-14-8.5-22t-21.5-8H841q-13 0-21.5 8t-8.5 22v188q0 93-27 127.5T681 0Q426 0 297 91.5T168 381q0 306 293 351-86 13-150.5 80.5T246 983q0 144 132 219H232q-14 0-22 8t-8 22v138q0 14 8 22t22 8h702q14 0 22-8t8-22v-138q0-14-8-22t-22-8H710q-114 0-172-51.5T480 1004q0-201 250-201h129q13 0 21.5-8.5T889 773V636q0-14-8.5-22t-21.5-8H730q-160 0-240-45.5T410 397q0-112 77-155.5T735 198z"/><glyph glyph-name="omicron" unicode="ο" vert-adv-y="1980" d="M615-25q-220 0-364.5 148T106 493q0 221 144.5 369T615 1010t365-148 145-369-145-369.5T615-25zm0 234q115 0 189.5 79T879 493t-74 204.5T615 776t-190-78.5T351 493t74.5-205T615 209z"/><glyph glyph-name="pi" unicode="π" vert-adv-y="1980" d="M1119 783H969V300q0-42 21-64t57-22q41 0 65 4 16 3 26-5t10-23V43q0-31-49-44T983-14q-117 0-191.5 65.5T717 258v525H493V30q0-14-8.5-22T463 0H271q-13 0-21.5 8T241 30v753H112q-14 0-22 8.5T82 813v147q0 14 8 22t22 8h1007q13 0 21.5-8t8.5-22V813q0-13-8.5-21.5T1119 783z"/><glyph glyph-name="rho" unicode="ρ" vert-adv-y="1980" d="M635 1010q220 0 364.5-148T1144 493q0-222-144.5-370T635-25q-142 0-258 66v-391q0-14-8.5-22t-21.5-8H155q-13 0-21.5 8t-8.5 22v843q0 221 145 369t365 148zm0-801q115 0 189.5 79T899 493t-74 204.5T635 776t-190-78.5T371 493t74-205 190-79z"/><glyph glyph-name="uni03C2" unicode="ς" vert-adv-y="1980" d="M924-380H729q-13 0-16 7t5 17q48 67 48 149 0 72-43 124T562 7q-61 20-115.5 47.5t-109.5 71-94 96T179.5 348 155 508q0 221 146 362.5T666 1012q140 0 252-61t178-163q17-23-10-40l-141-91q-22-14-40 8-94 114-237 114-117 0-193.5-71.5T398 511q0-119 73-190.5T676 207q78-25 133-52.5t105.5-69 76.5-102 26-139.5q0-130-68-213-10-11-25-11z"/><glyph glyph-name="sigma" unicode="σ" vert-adv-y="1980" d="M1049 990h130q13 0 21.5-8t8.5-22V820q0-14-8.5-22t-21.5-8h-140q86-130 86-297 0-221-145-369.5T615-25 250.5 123 106 493q0 221 144.5 369T615 1010h2l-2 2q56 0 187.5-11t246.5-11zM615 209q115 0 189.5 79T879 493t-74 204.5T615 776t-190-78.5T351 493t74.5-205T615 209z"/><glyph glyph-name="tau" unicode="τ" vert-adv-y="1980" d="M1100 990q14 0 22-8t8-22V813q0-13-8-21.5t-22-8.5H704V381q0-95 45.5-133.5T875 209q28 0 60 3 26 2 26-22V22q0-18-17-23-60-15-128-15-364 0-364 360v439H130q-14 0-22 8.5t-8 21.5v147q0 14 8 22t22 8h970z"/><glyph glyph-name="upsilon" unicode="υ" vert-adv-y="1980" d="M618-26Q523-26 438.5-.5t-151 74-105 127T144 377v583q0 14 8 22t22 8h192q14 0 22-8t8-22V454q0-117 55-182t169-65q235 0 235 297 0 236-161 459-7 11-3.5 19t15.5 8h221q16 0 26-15 155-246 155-509 0-117-32.5-207t-82-142.5-117.5-86-130-45T618-26z"/><glyph glyph-name="phi" unicode="φ" vert-adv-y="1980" d="M1156 491q0-221-109.5-353T732-23v-327q0-14-8-22t-22-8H528q-14 0-22 8t-8 22v327Q293 6 184 138T75 491t109 353 314 161v326q0 13 8 21.5t22 8.5h174q14 0 22-8.5t8-21.5v-326q205-29 314.5-161T1156 491zM732 772V211q103 21 148 89t45 191-45 191-148 90zM305 491q0-123 45-190.5T498 211v560q-103-21-148-89t-45-191z"/><glyph glyph-name="chi" unicode="χ" vert-adv-y="1980" d="M1117-174q29 0 29-31v-145q0-30-30-30-62 0-102 3t-86 13.5-78 30.5-63 55.5-54 87.5L615 70 374-359q-12-21-35-21H152q-17 0-23.5 10.5T130-344l371 662-143 314q-42 93-96.5 127.5T129 794q-29 0-29 31v145q0 30 30 30 62 0 103-3t88-13.5 80-30.5 65-56 55-87l115-252 230 411q12 21 35 21h188q17 0 23.5-10.5T1111 954L749 309 895-11q43-94 94.5-128.5T1117-174z"/><glyph glyph-name="psi" unicode="ψ" vert-adv-y="1980" d="M1160 519q0-108-25.5-195.5t-66-145T970 79 853.5 15 728-17v-333q0-14-8-22t-22-8H524q-14 0-22 8t-8 22v332Q311 8 198.5 112.5T86 394v566q0 14 8 22t22 8h183q13 0 21.5-8t8.5-22V454q0-189 165-233v919q0 14 8 22t22 8h174q14 0 22-8t8-22V219q101 26 144.5 104.5T916 540q0 230-91 426-5 10-.5 17t15.5 7h206q16 0 23-15 50-111 70.5-234.5T1160 519z"/><glyph glyph-name="omega" unicode="ω" vert-adv-y="1980" d="M343-26q-41 0-79.5 11.5t-80 45-72 86-50 141.5T42 463q0 276 100 512 5 15 26 15h212q12 0 15.5-7.5T392 963Q286 725 286 470q0-125 26-194t89-69q115 0 115 238v262q0 13 8 21.5t22 8.5h138q14 0 22-8.5t8-21.5V445q0-238 114-238 64 0 90 69t26 194q0 255-106 493-7 13-3.5 20t15.5 7h212q21 0 26-15 101-239 101-512 0-116-20-205t-50-141.5-72-86-80.5-45T887-26q-92 0-165.5 56.5T615 192Q582 87 508.5 30.5T343-26z"/><glyph glyph-name="iotadieresis" unicode="ϊ" vert-adv-y="1980" d="M365 1248q-53 0-90.5 38t-37.5 93q0 53 37.5 90.5T365 1507t91-37.5 38-90.5q0-55-37.5-93t-91.5-38zm426 0q-53 0-91 38t-38 93q0 53 38 90.5t91 37.5 91-37.5 38-90.5q0-55-38-93t-91-38zM816-16q-364 0-364 360v616q0 14 8 22t22 8h192q14 0 22-8t8-22V381q0-95 45.5-133.5T875 209q28 0 60 3 26 2 26-22V22q0-18-17-23-60-15-128-15z"/><glyph glyph-name="upsilondieresis" unicode="ϋ" vert-adv-y="1980" d="M392 1238q-53 0-90.5 38t-37.5 93q0 53 37.5 90.5T392 1497t91-37.5 38-90.5q0-55-37.5-93t-91.5-38zm426 0q-53 0-91 38t-38 93q0 53 38 90.5t91 37.5 91-37.5 38-90.5q0-55-38-93t-91-38zM618-26Q523-26 438.5-.5t-151 74-105 127T144 377v583q0 14 8 22t22 8h192q14 0 22-8t8-22V454q0-117 55-182t169-65q235 0 235 297 0 236-161 459-7 11-3.5 19t15.5 8h221q16 0 26-15 155-246 155-509 0-117-32.5-207t-82-142.5-117.5-86-130-45T618-26z"/><glyph glyph-name="omicrontonos" unicode="ό" vert-adv-y="1980" d="M703 1197H535q-17 0-24 9t0 25l120 252q11 24 34 24h168q17 0 24-9t0-25l-120-252q-11-24-34-24zM615-25q-220 0-364.5 148T106 493q0 221 144.5 369T615 1010t365-148 145-369-145-369.5T615-25zm0 234q115 0 189.5 79T879 493t-74 204.5T615 776t-190-78.5T351 493t74.5-205T615 209z"/><glyph glyph-name="upsilontonos" unicode="ύ" vert-adv-y="1980" d="M693 1187H525q-17 0-24 9t0 25l120 252q11 24 34 24h168q17 0 24-9t0-25l-120-252q-11-24-34-24zM618-26Q523-26 438.5-.5t-151 74-105 127T144 377v583q0 14 8 22t22 8h192q14 0 22-8t8-22V454q0-117 55-182t169-65q235 0 235 297 0 236-161 459-7 11-3.5 19t15.5 8h221q16 0 26-15 155-246 155-509 0-117-32.5-207t-82-142.5-117.5-86-130-45T618-26z"/><glyph glyph-name="omegatonos" unicode="ώ" vert-adv-y="1980" d="M703 1187H535q-17 0-24 9t0 25l120 252q11 24 34 24h168q17 0 24-9t0-25l-120-252q-11-24-34-24zM343-26q-41 0-79.5 11.5t-80 45-72 86-50 141.5T42 463q0 276 100 512 5 15 26 15h212q12 0 15.5-7.5T392 963Q286 725 286 470q0-125 26-194t89-69q115 0 115 238v262q0 13 8 21.5t22 8.5h138q14 0 22-8.5t8-21.5V445q0-238 114-238 64 0 90 69t26 194q0 255-106 493-7 13-3.5 20t15.5 7h212q21 0 26-15 101-239 101-512 0-116-20-205t-50-141.5-72-86-80.5-45T887-26q-92 0-165.5 56.5T615 192Q582 87 508.5 30.5T343-26z"/><glyph glyph-name="uni03CF" unicode="Ϗ" vert-adv-y="1980" d="M1163 15h4q1-89-26.5-160T1069-260t-104-73-119.5-40.5T723-385q-66 0-127.5 13T490-339t-75.5 43.5T371-250t-2 37l74 122q17 27 47 7 33-21 56-34t66.5-25.5T702-156q104 0 160.5 49T877 8q-3 2-9 8L539 393 390 240V30q0-14-8-22t-22-8H168q-14 0-22 8t-8 22v930q0 14 8 22t22 8h192q14 0 22-8t8-22V547l409 427q16 16 38 16h232q20 0 25-11t-9-25L698 557l457-521q10-11 8-21z"/><glyph glyph-name="uni03D7" unicode="ϗ" vert-adv-y="1980" d="M1185 208q27 2 27-22v-304q0-352-364-352-73 0-128 16-18 4-18 22v168q0 26 27 22 32-3 60-3 171 0 171 164V0Q807 55 807 253v365L450 20Q438 0 412 0H201q-13 0-21.5 8T171 30v643q0 56-16.5 79T99 775q-13 0-31.5-1.5T45 772q-27-2-27 22v168q0 18 17 23 60 15 111 15 56 0 103-13t87.5-43 63.5-85 23-132V372l357 598q12 20 38 20h211q13 0 21.5-8t8.5-22V307q0-56 16.5-79t55.5-23q13 0 31.5 1.5t22.5 1.5z"/><glyph glyph-name="uni0401" unicode="Ё" vert-adv-y="1980" d="M402 1598q-53 0-90.5 38t-37.5 93q0 53 37.5 90.5T402 1857t91-37.5 38-90.5q0-55-37.5-93t-91.5-38zm426 0q-53 0-91 38t-38 93q0 53 38 90.5t91 37.5 91-37.5 38-90.5q0-55-38-93t-91-38zM1044 0H187q-13 0-21.5 8T157 30v1280q0 14 8.5 22t21.5 8h855q14 0 22-8t8-22v-172q0-14-8-22t-22-8H418V791h579q13 0 21.5-8.5t8.5-21.5V589q0-13-8.5-21.5T997 559H418V232h626q14 0 22-8t8-22V30q0-14-8-22t-22-8z"/><glyph glyph-name="uni0403" unicode="Ѓ" vert-adv-y="1980" d="M706 1547H538q-17 0-24 9t0 25l120 252q11 24 34 24h168q17 0 24-9t0-25l-120-252q-11-24-34-24zm348-207q14 0 22-8t8-22v-172q0-14-8-22t-22-8H428V30q0-14-8-22t-22-8H197q-13 0-21.5 8T167 30v1280q0 14 8.5 22t21.5 8h857z"/><glyph glyph-name="uni0404" unicode="Є" vert-adv-y="1980" d="M930 456h182q30 0 28-32-13-241-136.5-347.5T652-30q-279 0-402 162.5T127 665t123 532.5T652 1360q114 0 198-25.5t148-83.5 99.5-157.5T1140 851q2-33-28-33H930q-29 0-33 26-9 81-29.5 135t-54.5 82-71.5 38.5T651 1110q-64 0-109-16t-81-57-55.5-116T382 733h374q14 0 22-8.5t8-21.5V594q0-14-8-22t-22-8H384q6-102 26-170.5t55.5-106T545 235t106-15q110 0 169.5 45.5T897 430q4 26 33 26z"/><glyph glyph-name="uni0406" unicode="І" vert-adv-y="1980" d="M1069 0H161q-13 0-21.5 8T131 30v172q0 14 8.5 22t21.5 8h323v876H161q-13 0-21.5 8t-8.5 22v172q0 14 8.5 22t21.5 8h908q13 0 21.5-8t8.5-22v-172q0-14-8.5-22t-21.5-8H746V232h323q13 0 21.5-8t8.5-22V30q0-14-8.5-22T1069 0z"/><glyph glyph-name="uni0407" unicode="Ї" vert-adv-y="1980" d="M402 1598q-53 0-90.5 38t-37.5 93q0 53 37.5 90.5T402 1857t91-37.5 38-90.5q0-55-37.5-93t-91.5-38zm426 0q-53 0-91 38t-38 93q0 53 38 90.5t91 37.5 91-37.5 38-90.5q0-55-38-93t-91-38zM1069 0H161q-13 0-21.5 8T131 30v172q0 14 8.5 22t21.5 8h323v876H161q-13 0-21.5 8t-8.5 22v172q0 14 8.5 22t21.5 8h908q13 0 21.5-8t8.5-22v-172q0-14-8.5-22t-21.5-8H746V232h323q13 0 21.5-8t8.5-22V30q0-14-8.5-22T1069 0z"/><glyph glyph-name="uni0410" unicode="А" vert-adv-y="1980" d="M812 1316L1162 34q8-34-24-34H934q-29 0-34 24l-60 237H390L330 24q-5-24-34-24H93Q59 0 69 34l349 1282q8 24 35 24h324q27 0 35-24zm-215-246L447 484h336l-150 586h-36z"/><glyph glyph-name="uni0411" unicode="Б" vert-adv-y="1980" d="M401 901h237q487 0 487-451Q1125 0 638 0H170q-14 0-22 8t-8 22v1280q0 14 8 22t22 8h724q14 0 22-8t8-22v-172q0-14-8-22t-22-8H401V901zm0-669h223q126 0 188 49t62 169q0 119-62 168.5T624 668H401V232z"/><glyph glyph-name="uni0412" unicode="В" vert-adv-y="1980" d="M632 0H153q-13 0-21.5 8T123 30v1280q0 14 8.5 22t21.5 8h498q108 0 188.5-26t126.5-72.5 67.5-104T1055 1011q0-106-53-181t-168-99v-20q292-41 292-337 0-185-117-279.5T632 0zM384 1108V815h242q98 0 140.5 38T809 969q0 75-41.5 107T626 1108H384zm0-511V232h254q121 0 173.5 42T864 411q0 93-53 139.5T638 597H384z"/><glyph glyph-name="uni0413" unicode="Г" vert-adv-y="1980" d="M1054 1340q14 0 22-8t8-22v-172q0-14-8-22t-22-8H428V30q0-14-8-22t-22-8H197q-13 0-21.5 8T167 30v1280q0 14 8.5 22t21.5 8h857z"/><glyph glyph-name="uni0414" unicode="Д" vert-adv-y="1980" d="M1046 232h119q13 0 21.5-8t8.5-22v-310q0-14-8.5-22t-21.5-8H982q-14 0-22 8t-8 22V0H278v-108q0-14-8-22t-22-8H65q-13 0-21.5 8T35-108v310q0 14 8.5 22t21.5 8q89 0 142.5 53T261 449v861q0 14 8.5 22t21.5 8h725q14 0 22-8t8-22V232zm-524 876V447q0-130-64-215h326v876H522z"/><glyph glyph-name="uni0415" unicode="Е" vert-adv-y="1980" d="M1044 0H187q-13 0-21.5 8T157 30v1280q0 14 8.5 22t21.5 8h855q14 0 22-8t8-22v-172q0-14-8-22t-22-8H418V791h579q13 0 21.5-8.5t8.5-21.5V589q0-13-8.5-21.5T997 559H418V232h626q14 0 22-8t8-22V30q0-14-8-22t-22-8z"/><glyph glyph-name="uni0416" unicode="Ж" vert-adv-y="1980" d="M873 747l314-711q16-36-18-36H993q-30 0-36 18L753 516l-25-49V30q0-14-8-22t-22-8H532q-14 0-22 8t-8 22v437l-25 49L274 18q-8-18-36-18H61Q27 0 43 36l314 711-289 557q-18 36 16 36h183q28 0 35-16l200-457v443q0 14 8 22t22 8h166q14 0 22-8t8-22V867l200 457q7 16 35 16h183q34 0 16-36z"/><glyph glyph-name="uni0417" unicode="З" vert-adv-y="1980" d="M858 722v-23q132-37 204-121t72-209q0-178-145.5-286.5T606-26Q372-26 238.5 82.5T105 386q0 30 28 30h183q32 0 33-27 4-95 73.5-144.5T605 195q120 0 190 53.5T865 395q0 92-80 149.5T525 602q-30 0-30 29v128q0 30 31 30 73 0 129.5 11t90.5 28 55.5 41.5T831 918t8 52q0 81-65 125.5T609 1140q-105 0-173-50t-72-144q-1-26-33-26H148q-28 0-28 28 0 196 132.5 304.5T610 1361q209 0 341-93.5t132-253.5q0-207-225-292z"/><glyph glyph-name="uni0418" unicode="И" vert-adv-y="1980" d="M1053 1340q13 0 21.5-8t8.5-22V30q0-14-8.5-22T1053 0H878q-14 0-22 8t-8 22v893L441 20q-9-20-36-20H177q-13 0-21.5 8T147 30v1280q0 14 8.5 22t21.5 8h175q14 0 22-8t8-22V418l406 902q10 20 36 20h229z"/><glyph glyph-name="uni0419" unicode="Й" vert-adv-y="1980" d="M615 1601q-141 0-226.5 80T291 1884q-3 31 29 31h105q26 0 32-29 12-50 53-85.5t105-35.5 105.5 35.5T773 1886q6 29 32 29h105q33 0 30-31-13-123-98.5-203T615 1601zm438-261q13 0 21.5-8t8.5-22V30q0-14-8.5-22T1053 0H878q-14 0-22 8t-8 22v893L441 20q-9-20-36-20H177q-13 0-21.5 8T147 30v1280q0 14 8.5 22t21.5 8h175q14 0 22-8t8-22V418l406 902q10 20 36 20h229z"/><glyph glyph-name="uni041A" unicode="К" vert-adv-y="1980" d="M675 729l489-693q10-15 5-25.5T1146 0H924q-23 0-36 18L522 536 372 346V30q0-14-8-22t-22-8H140q-14 0-22 8t-8 22v1280q0 14 8 22t22 8h202q14 0 22-8t8-22V708l464 616q12 16 36 16h242q19 0 23.5-11t-7.5-25z"/><glyph glyph-name="uni041B" unicode="Л" vert-adv-y="1980" d="M1064 1340q14 0 22-8t8-22V30q0-14-8-22t-22-8H862q-14 0-22 8t-8 22v1078H503V401q0-202-109.5-307T102-11Q84-11 79 5L19 202q-7 20 14 22 100 7 154 59t54 163v864q0 14 8.5 22t21.5 8h793z"/><glyph glyph-name="uni041C" unicode="М" vert-adv-y="1980" d="M308 0H153q-13 0-21.5 8T123 30v1280q0 14 8.5 22t21.5 8h208q32 0 36-20l211-926h14l211 926q4 20 36 20h208q13 0 21.5-8t8.5-22V30q0-14-8.5-22T1077 0H922q-14 0-22 8t-8 22v779h-14L711 124q-6-24-35-24H555q-30 0-36 24L352 809h-14V30q0-14-8-22t-22-8z"/><glyph glyph-name="uni041D" unicode="Н" vert-adv-y="1980" d="M861 1340h201q14 0 22-8t8-22V30q0-14-8-22t-22-8H861q-13 0-21.5 8T831 30v513H399V30q0-14-8.5-22T369 0H168q-14 0-22 8t-8 22v1280q0 14 8 22t22 8h201q13 0 21.5-8t8.5-22V775h432v535q0 14 8.5 22t21.5 8z"/><glyph glyph-name="uni041E" unicode="О" vert-adv-y="1980" d="M615-30q-267 0-387 163T108 665t120 532 387 163 387-163 120-532-120-532T615-30zm0 250q50 0 87 11t70 40.5 53.5 79.5 32 128.5T869 665t-11.5 185.5-32 128.5-53.5 79.5-70 40.5-87 11-87-11-70-40.5-53.5-79.5-32-128.5T361 665t11.5-185.5 32-128.5 53.5-79.5 70-40.5 87-11z"/><glyph glyph-name="uni041F" unicode="П" vert-adv-y="1980" d="M1044 1342q14 0 22-8t8-22V30q0-14-8-22t-22-8H842q-14 0-22 8t-8 22v1079H418V30q0-14-8-22t-22-8H187q-13 0-21.5 8T157 30v1282q0 14 8.5 22t21.5 8h857z"/><glyph glyph-name="uni0420" unicode="Р" vert-adv-y="1980" d="M170 1340h468q487 0 487-450T638 440H401V30q0-14-8.5-22T371 0H170q-14 0-22 8t-8 22v1280q0 14 8 22t22 8zm231-668h223q126 0 188 49.5T874 890q0 120-62 169t-188 49H401V672z"/><glyph glyph-name="uni0421" unicode="С" vert-adv-y="1980" d="M632-30q-279 0-401.5 162.5T108 665t122.5 532.5T632 1360q114 0 198-25.5t148.5-83.5 100-157.5T1121 851q2-33-28-33H910q-29 0-32 26-9 81-30 135t-54.5 82-71.5 38.5-91 10.5q-69 0-116-18.5t-83.5-67-53.5-137T361 665t17-222.5 53.5-137 83.5-67T631 220q111 0 170 45.5T878 430q3 26 32 26h183q30 0 28-32-13-241-137-347.5T632-30z"/><glyph glyph-name="uni0422" unicode="Т" vert-adv-y="1980" d="M716 0H514q-14 0-22 8t-8 22v1078H130q-14 0-22 8t-8 22v172q0 14 8 22t22 8h970q14 0 22-8t8-22v-172q0-14-8-22t-22-8H746V30q0-14-8-22t-22-8z"/><glyph glyph-name="uni0423" unicode="У" vert-adv-y="1980" d="M945 1340h211q18 0 23-10.5t-3-25.5L495 20Q485 0 459 0H247q-38 0-20 36l248 467-420 801q-9 15-3.5 25.5T75 1340h210q26 0 36-20l289-563 299 563q10 20 36 20z"/><glyph glyph-name="uni0424" unicode="Ф" vert-adv-y="1980" d="M733 1201h3q116 0 201.5-42.5t134-118 71-167.5 22.5-203-22.5-203-71-167.5-134-118T736 139h-3V30q0-14-8.5-22T703 0H527q-13 0-21.5 8T497 30v109h-3q-116 0-201.5 42.5t-134 118-71 167.5T65 670t22.5 203 71 167.5 134 118T494 1201h3v109q0 14 8.5 22t21.5 8h176q13 0 21.5-8t8.5-22v-109zM494 372h3v597h-3q-107 0-146.5-73.5T308 670t39.5-225T494 372zm239 0h3q107 0 146.5 73T922 670t-39.5 225.5T736 969h-3V372z"/><glyph glyph-name="uni0425" unicode="Х" vert-adv-y="1980" d="M754 681l389-645q10-16 4-26t-24-10H910q-25 0-36 20L615 450 356 20Q345 0 320 0H108Q90 0 84 10t4 26l388 645-375 623q-10 16-4 26t24 10h212q25 0 36-20l246-408 246 408q11 20 36 20h212q18 0 24-10t-4-26z"/><glyph glyph-name="uni0426" unicode="Ц" vert-adv-y="1980" d="M1037 232h125q14 0 22-8t8-22v-310q0-14-8-22t-22-8H978q-14 0-22 8t-8 22V0H190q-14 0-22 8t-8 22v1280q0 14 8 22t22 8h201q13 0 21.5-8t8.5-22V232h354v1078q0 14 8.5 22t21.5 8h202q13 0 21.5-8t8.5-22V232z"/><glyph glyph-name="uni0427" unicode="Ч" vert-adv-y="1980" d="M908 1340h201q13 0 21.5-8t8.5-22V30q0-14-8.5-22T1109 0H908q-14 0-22 8t-8 22v446q-66-79-160.5-124T509 307q-186 0-302 116.5T91 750v560q0 14 8.5 22t21.5 8h201q14 0 22-8t8-22V804q0-115 71.5-178.5T612 562q119 0 192.5 64T878 805v505q0 14 8 22t22 8z"/><glyph glyph-name="uni0428" unicode="Ш" vert-adv-y="1980" d="M1092 0H138q-14 0-22 8t-8 22v1280q0 14 8 22t22 8h166q14 0 22-8t8-22V232h168v1078q0 14 8 22t22 8h166q14 0 22-8t8-22V232h168v1078q0 14 8 22t22 8h166q14 0 22-8t8-22V30q0-14-8-22t-22-8z"/><glyph glyph-name="uni0429" unicode="Щ" vert-adv-y="1980" d="M1082 232h80q14 0 22-8t8-22v-310q0-14-8-22t-22-8H978q-14 0-22 8t-8 22V0H138q-14 0-22 8t-8 22v1280q0 14 8 22t22 8h166q14 0 22-8t8-22V232h148v1078q0 14 8 22t22 8h166q14 0 22-8t8-22V232h148v1078q0 14 8 22t22 8h166q14 0 22-8t8-22V232z"/><glyph glyph-name="uni042A" unicode="Ъ" vert-adv-y="1980" d="M484 915h180q137 0 231.5-30.5t148.5-92 77-142.5 23-192q0-112-23-193t-77-142.5-148.5-92T664 0H253q-13 0-21.5 8T223 30v1078H87q-13 0-21.5 8t-8.5 22v172q0 14 8.5 22t21.5 8h367q14 0 22-8t8-22V915zm0-683h161q68 0 111 9t76 33 47 69 14 115-14 114.5-47 68.5-76 33-111 9H484V232z"/><glyph glyph-name="uni042B" unicode="Ы" vert-adv-y="1980" d="M402 0H80Q66 0 58 8t-8 22v1340q0 14 8 22t22 8h193q13 0 21.5-8t8.5-22V915h99q122 0 206.5-29.5T743 796t72-142 22-196q0-231-98.5-344.5T402 0zm748 0H957q-13 0-21.5 8T927 30v1340q0 14 8.5 22t21.5 8h193q14 0 22-8t8-22V30q0-14-8-22t-22-8zM400 683h-97V232h97q52 0 83.5 8t57 31 36 68.5T587 458t-10.5 118-36 68.5-57 31T400 683z"/><glyph glyph-name="uni042C" unicode="Ь" vert-adv-y="1980" d="M638 0H170q-14 0-22 8t-8 22v1280q0 14 8 22t22 8h201q13 0 21.5-8t8.5-22V901h237q487 0 487-451Q1125 0 638 0zm-14 668H401V232h223q126 0 188 49t62 169q0 119-62 168.5T624 668z"/><glyph glyph-name="uni042D" unicode="Э" vert-adv-y="1980" d="M596 1360q279 0 402-162.5T1121 665 998 132.5 596-30Q368-30 244.5 76.5T108 424q-2 32 28 32h182q29 0 33-26 17-119 76.5-164.5T597 220q62 0 106 15t79.5 52.5 55.5 106T864 564H492q-14 0-22 8t-8 22v109q0 13 8 21.5t22 8.5h374q-4 113-23.5 188T787 1037t-81 57-109 16q-53 0-90.5-10.5T435 1061t-54.5-82T351 844q-4-26-33-26H136q-30 0-28 33 7 143 42.5 242.5T250 1251t148 83.5 198 25.5z"/><glyph glyph-name="uni042E" unicode="Ю" vert-adv-y="1980" d="M766 1356q106-1 177.5-33.5t122.5-111 74.5-212.5 23.5-334-23.5-334-74.5-212.5-122.5-111T766-26q-137-1-219 52.5t-127 187T369 579h-86V30q0-14-8.5-22T253 0H88Q67 0 67 30v1280q0 30 21 30h165q13 0 21.5-8t8.5-22V786h87q7 165 33 275t76 175.5 119 93 168 26.5zm0-1126q43 0 71.5 16t52.5 61 35.5 133.5T937 665t-11.5 224.5T890 1023t-52.5 61-71.5 16-71.5-16-52.5-61-35.5-133.5T595 665t11.5-224.5T642 307t52.5-61 71.5-16z"/><glyph glyph-name="uni042F" unicode="Я" vert-adv-y="1980" d="M587 1340h469q14 0 22-8t8-22V30q0-14-8-22t-22-8H854q-14 0-22 8t-8 22v410H578L367 23Q356 0 332 0H133q-17 0-23.5 9.5T111 35l227 446q-238 95-238 409 0 450 487 450zm14-668h223v436H601q-126 0-188-49t-62-169q0-119 62-168.5T601 672z"/><glyph glyph-name="uni0430" unicode="а" vert-adv-y="1980" d="M1088 172q15-11 22-17.5t12-19.5 5-31V70q0-85-115-85-78 0-129.5 44.5T831 160v21h-16Q785 94 701 34.5T483-25h-50q-148 0-233 77.5T115 271q0 267 312 287l377 25v53q0 98-43.5 134.5T603 807q-97 0-144.5-24T403 701q-3-21-28-21H193q-31 0-29 30 7 300 445 300 164 0 262.5-44t139-126 40.5-213V289q0-56 8.5-79t28.5-38zm-567-5h30q66 0 121.5 20t93.5 66.5T804 366v59l-315-23q-129-10-129-115 0-120 161-120z"/><glyph glyph-name="uni0431" unicode="б" vert-adv-y="1980" d="M695 1013q134 0 235-69t153-185.5 52-263.5q0-148-53-265.5T926 43 685-26q-192 0-314 139l-7-83q-3-30-30-30H162q-14 0-22 8t-8 22v1027q0 173 81 258t250 85h235q62 0 88 9.5t40 30.5h199q-3-72-26.5-121.5T930 1242t-100.5-38-132.5-11H529q-82 0-114.5-39T382 1032V862h22q37 68 111.5 109.5T695 1013zm-56-809q120 0 186.5 78.5T892 495t-66 211-187 77q-120 0-188.5-77.5T382 495t68.5-212T639 204z"/><glyph glyph-name="uni0432" unicode="в" vert-adv-y="1980" d="M920 532v-20q111-14 173-76.5t62-157.5q0-133-118.5-205.5T711 0H170q-14 0-22 8t-8 22v930q0 14 8 22t22 8h551q159 0 259-69.5T1080 730q0-75-41.5-127.5T920 532zm-69 162q0 41-29 65.5T711 784H392V601h316q82 0 112.5 25t30.5 68zM392 206h351q96 0 133.5 28.5T914 312q0 50-38 79.5T740 421H392V206z"/><glyph glyph-name="uni0433" unicode="г" vert-adv-y="1980" d="M1059 990q13 0 21.5-8t8.5-22V814q0-14-8.5-22t-21.5-8H413V30q0-14-8.5-22T383 0H191q-13 0-21.5 8T161 30v930q0 14 8.5 22t21.5 8h868z"/><glyph glyph-name="uni0434" unicode="д" vert-adv-y="1980" d="M1069 206h85q14 0 22-8t8-22v-293q0-13-8-21.5t-22-8.5H979q-13 0-21.5 8.5T949-117V0H281v-117q0-13-8.5-21.5T251-147H77q-13 0-21.5 8.5T47-117v323q0 19 16 19 89 0 148.5 56.5T271 449v511q0 14 8.5 22t21.5 8h738q13 0 21.5-8t8.5-22V206zM826 784H513V447q0-157-79-241h392v578z"/><glyph glyph-name="uni0435" unicode="е" vert-adv-y="1980" d="M1108 522q0-54-17-76.5t-73-22.5l-655 1q8-118 93-183t223-65q128 0 231 56 23 13 41 7t44-39q30-37 32.5-58T1006 96Q950 41 857 8T651-25q-238 0-383.5 143.5T122 494q0 230 140 373t368 143q222 0 350-136t128-352zM631 796q-105 0-172.5-52T372 593h513q-14 100-81 152t-173 51z"/><glyph glyph-name="uni0436" unicode="ж" vert-adv-y="1980" d="M872 558l295-522q20-36-17-36H982q-28 0-36 16L750 379l-36-53V30q0-14-8-22t-22-8H546q-14 0-22 8t-8 22v297l-36 52L284 16q-8-16-36-16H80Q43 0 63 36l295 523L89 954q-12 15-8 25.5t23 10.5h180q25 0 36-20l196-325v315q0 14 8 22t22 8h138q14 0 22-8t8-22V645l196 325q11 20 36 20h180q19 0 23-10.5t-7-25.5z"/><glyph glyph-name="uni0437" unicode="з" vert-adv-y="1980" d="M888 533v-20q99-28 150-89.5t51-147.5q0-138-130.5-220T592-26q-164 0-275.5 38T156 110q-25 31 0 59l76 87q21 24 54-4 83-68 296-68 133 0 207.5 31t74.5 93q0 27-16.5 47.5T791 393t-115 26-184 9q-49 0-49 43v81q0 45 49 45 102 0 170 7.5T765.5 627t49 33 13.5 42q0 103-228 103-177 0-290-61-49-26-70 4l-55 76q-24 32-2 57 51 56 159 94t264 38q212 0 332-72.5T1058 744q0-75-44.5-129T888 533z"/><glyph glyph-name="uni0438" unicode="и" vert-adv-y="1980" d="M1039 990q13 0 21.5-8t8.5-22V30q0-14-8.5-22T1039 0H847q-13 0-21.5 8T817 30v601L440 20Q427 0 402 0H191q-13 0-21.5 8T161 30v930q0 14 8.5 22t21.5 8h192q13 0 21.5-8t8.5-22V359l377 611q13 20 38 20h211z"/><glyph glyph-name="uni0439" unicode="й" vert-adv-y="1980" d="M615 1193q-141 0-226.5 80T291 1476q-3 31 29 31h105q26 0 32-29 12-50 53-85.5t105-35.5 105.5 35.5T773 1478q6 29 32 29h105q33 0 30-31-13-123-98.5-203T615 1193zm424-203q13 0 21.5-8t8.5-22V30q0-14-8.5-22T1039 0H847q-13 0-21.5 8T817 30v601L440 20Q427 0 402 0H191q-13 0-21.5 8T161 30v930q0 14 8.5 22t21.5 8h192q13 0 21.5-8t8.5-22V359l377 611q13 20 38 20h211z"/><glyph glyph-name="uni043A" unicode="к" vert-adv-y="1980" d="M698 557l457-521q13-14 7.5-25T1137 0H904q-23 0-36 16L539 393 390 240V30q0-14-8-22t-22-8H168q-14 0-22 8t-8 22v930q0 14 8 22t22 8h192q14 0 22-8t8-22V547l409 427q16 16 38 16h232q20 0 25-11t-9-25z"/><glyph glyph-name="uni043B" unicode="л" vert-adv-y="1980" d="M1102 990q14 0 22-8t8-22V30q0-14-8-22t-22-8H910q-14 0-22 8t-8 22v754H501V332q0-97-29-165T386 61 256.5 6.5 87-10q-32 0-32 20v191q0 23 23 23 86 0 128.5 39.5T249 406v554q0 14 8.5 22t21.5 8h823z"/><glyph glyph-name="uni043C" unicode="м" vert-adv-y="1980" d="M1062 990q14 0 22-8t8-22V30q0-14-8-22t-22-8H883q-13 0-21.5 8T853 30v514L711 72q-6-22-34-22H553q-28 0-34 22L377 544V30q0-14-8.5-22T347 0H168q-14 0-22 8t-8 22v930q0 14 8 22t22 8h195q27 0 34-22l218-671 218 671q7 22 34 22h195z"/><glyph glyph-name="uni043D" unicode="н" vert-adv-y="1980" d="M847 990h192q13 0 21.5-8t8.5-22V30q0-14-8.5-22T1039 0H847q-13 0-21.5 8T817 30v357H413V30q0-14-8.5-22T383 0H191q-13 0-21.5 8T161 30v930q0 14 8.5 22t21.5 8h192q13 0 21.5-8t8.5-22V593h404v367q0 14 8.5 22t21.5 8z"/><glyph glyph-name="uni043E" unicode="о" vert-adv-y="1980" d="M615-25q-220 0-364.5 148T106 493q0 221 144.5 369T615 1010t365-148 145-369-145-369.5T615-25zm0 234q115 0 189.5 79T879 493t-74 204.5T615 776t-190-78.5T351 493t74.5-205T615 209z"/><glyph glyph-name="uni043F" unicode="п" vert-adv-y="1980" d="M1039 990q13 0 21.5-8t8.5-22V30q0-14-8.5-22T1039 0H847q-13 0-21.5 8T817 30v754H413V30q0-14-8.5-22T383 0H191q-13 0-21.5 8T161 30v930q0 14 8.5 22t21.5 8h848z"/><glyph glyph-name="uni0440" unicode="р" vert-adv-y="1980" d="M691 1010q203 0 322-145.5T1132 493q0-148-52-265T927 43 691-25q-108 0-181 43T399 134h-27v-484q0-14-8-22t-22-8H157q-13 0-21.5 8t-8.5 22V960q0 14 8.5 22t21.5 8h192q13 0 21.5-8t8.5-22v-99h20q38 67 111.5 108t180.5 41zm-64-802q118 0 189 77t71 208-71 207.5T627 777q-119 0-189-76.5T368 493t70-208 189-77z"/><glyph glyph-name="uni0441" unicode="с" vert-adv-y="1980" d="M652 209q144 0 233 113 18 23 40 8l134-91q25-17 9-40-65-103-175-163.5T644-25q-223 0-370 147T127 493t147 370.5T644 1010q139 0 249-60.5T1068 786q16-23-10-41l-133-90q-22-15-40 8-89 113-233 113-121 0-200.5-78.5T372 493t79.5-205T652 209z"/><glyph glyph-name="uni0442" unicode="т" vert-adv-y="1980" d="M710 0H518q-14 0-22 8t-8 22v754H122q-14 0-22 8t-8 22v146q0 14 8 22t22 8h987q13 0 21.5-8t8.5-22V814q0-14-8.5-22t-21.5-8H740V30q0-14-8-22t-22-8z"/><glyph glyph-name="uni0443" unicode="у" vert-adv-y="1980" d="M911 990h192q17 0 24-9t0-25L603-356q-9-24-36-24H375q-17 0-24 9t0 25L490-3 103 956q-7 16 0 25t24 9h192q27 0 36-24l260-681 260 681q9 24 36 24z"/><glyph glyph-name="uni0444" unicode="ф" vert-adv-y="1980" d="M1156 491q0-221-109.5-353T732-23v-327q0-14-8-22t-22-8H528q-14 0-22 8t-8 22v327Q293 6 184 138T75 491t109 353 314 161v326q0 13 8 21.5t22 8.5h174q14 0 22-8.5t8-21.5v-326q205-29 314.5-161T1156 491zM732 772V211q103 21 148 89t45 191-45 191-148 90zM305 491q0-123 45-190.5T498 211v560q-103-21-148-89t-45-191z"/><glyph glyph-name="uni0445" unicode="х" vert-adv-y="1980" d="M758 512l386-476q12-15 6-25.5T1126 0H905q-23 0-36 18L615 337 361 18Q347 0 325 0H104Q86 0 80 10.5T86 36l388 476-359 442q-12 15-6 25.5t24 10.5h220q22 0 36-18l226-285 226 285q14 18 36 18h220q18 0 24-10.5t-6-25.5z"/><glyph glyph-name="uni0446" unicode="ц" vert-adv-y="1980" d="M1069 206h93q14 0 22-8t8-22V-91q0-13-8-21.5t-22-8.5H980q-14 0-22 8.5T950-91V0H191q-13 0-21.5 8T161 30v930q0 14 8.5 22t21.5 8h192q13 0 21.5-8t8.5-22V206h404v754q0 14 8.5 22t21.5 8h192q13 0 21.5-8t8.5-22V206z"/><glyph glyph-name="uni0447" unicode="ч" vert-adv-y="1980" d="M847 990h192q13 0 21.5-8t8.5-22V30q0-14-8.5-22T1039 0H847q-13 0-21.5 8T817 30v281q-53-59-132.5-94T512 182q-76 0-144.5 25.5T242 283t-90.5 135T118 612v348q0 14 8 22t22 8h192q14 0 22-8t8-22V641q0-111 56-179t162-68q108 0 168.5 68.5T817 641v319q0 14 8.5 22t21.5 8z"/><glyph glyph-name="uni0448" unicode="ш" vert-adv-y="1980" d="M889 990h175q14 0 22-8t8-22V30q0-14-8-22t-22-8H167q-13 0-21.5 8T137 30v930q0 14 8.5 22t21.5 8h174q13 0 21.5-8t8.5-22V206h137v754q0 14 8 22t22 8h154q14 0 22-8t8-22V206h137v754q0 14 8.5 22t21.5 8z"/><glyph glyph-name="uni0449" unicode="щ" vert-adv-y="1980" d="M1094 206h68q14 0 22-8t8-22V-91q0-13-8-21.5t-22-8.5H980q-14 0-22 8.5T950-91V0H167q-13 0-21.5 8T137 30v930q0 14 8.5 22t21.5 8h174q13 0 21.5-8t8.5-22V206h137v754q0 14 8 22t22 8h154q14 0 22-8t8-22V206h137v754q0 14 8.5 22t21.5 8h175q14 0 22-8t8-22V206z"/><glyph glyph-name="uni044A" unicode="ъ" vert-adv-y="1980" d="M507 689h192q211 0 307-80.5t96-263.5q0-184-96-264.5T699 0H285q-13 0-21.5 8T255 30v754H117q-13 0-21.5 8T87 814v146q0 14 8.5 22t21.5 8h360q13 0 21.5-8t8.5-22V689zm0-499h196q90 0 123 33.5T859 345t-33 121.5T703 500H507V190z"/><glyph glyph-name="uni044B" unicode="ы" vert-adv-y="1980" d="M449 0H128q-14 0-22 8t-8 22v930q0 14 8 22t22 8h174q14 0 22-8t8-22V689h117q208 0 285.5-77T812 345q0-128-32-201T669.5 35.5 449 0zm653 0H928q-14 0-22 8t-8 22v930q0 14 8 22t22 8h174q14 0 22-8t8-22V30q0-14-8-22t-22-8zM332 500V190h121q77 0 105.5 33.5T587 345q0 87-28.5 121T453 500H332z"/><glyph glyph-name="uni044C" unicode="ь" vert-adv-y="1980" d="M413 689h286q211 0 307-80.5t96-263.5q0-184-96-264.5T699 0H191q-13 0-21.5 8T161 30v930q0 14 8.5 22t21.5 8h192q13 0 21.5-8t8.5-22V689zm0-499h290q90 0 123 33.5T859 345t-33 121.5T703 500H413V190z"/><glyph glyph-name="uni044D" unicode="э" vert-adv-y="1980" d="M600 1010q223 0 370-146.5T1117 493 970 122 600-25q-139 0-249.5 61T176 199q-17 23 9 40l134 91q22 15 40-8 89-113 232-113 98 0 171 52.5T860 404H549q-13 0-21.5 8t-8.5 22v108q0 14 8.5 22t21.5 8h314q-24 94-97.5 149T591 776q-143 0-232-113-18-23-40-8l-133 90q-27 18-10 41 64 103 174 163.5t250 60.5z"/><glyph glyph-name="uni044E" unicode="ю" vert-adv-y="1980" d="M771 1012q107 0 182-38.5T1069 862t58.5-162.5T1145 493t-17.5-206.5T1069 124 953 12.5 771-26q-95 0-164.5 30T495 90.5 430 219t-30 167h-81V30q0-14-8.5-22T289 0H115q-13 0-21.5 8T85 30v930q0 14 8.5 22t21.5 8h174q13 0 21.5-8t8.5-22V592h80q7 96 29.5 169.5T493 893t112 88.5 166 30.5zm0-805q91 0 124.5 72T929 493t-33.5 214T771 779q-48 0-80-20t-48.5-60-23-88.5T613 493t6.5-117.5 23-88.5 48.5-60 80-20z"/><glyph glyph-name="uni044F" unicode="я" vert-adv-y="1980" d="M1039 990q13 0 21.5-8t8.5-22V30q0-14-8.5-22T1039 0H847q-13 0-21.5 8T817 30v298H666L396 16Q383 0 360 0H148q-19 0-24 11t8 25l270 301q-136 23-208.5 104.5T121 659q0 162 102.5 246.5T515 990h524zM533 518h284v283H533q-169 0-169-142 0-141 169-141z"/><glyph glyph-name="uni0451" unicode="ё" vert-adv-y="1980" d="M383 1248q-53 0-90.5 38t-37.5 93q0 53 37.5 90.5T383 1507t91-37.5 38-90.5q0-55-37.5-93t-91.5-38zm426 0q-53 0-91 38t-38 93q0 53 38 90.5t91 37.5 91-37.5 38-90.5q0-55-38-93t-91-38zm299-726q0-54-17-76.5t-73-22.5l-655 1q8-118 93-183t223-65q128 0 231 56 23 13 41 7t44-39q30-37 32.5-58T1006 96Q950 41 857 8T651-25q-238 0-383.5 143.5T122 494q0 230 140 373t368 143q222 0 350-136t128-352zM631 796q-105 0-172.5-52T372 593h513q-14 100-81 152t-173 51z"/><glyph glyph-name="uni0453" unicode="ѓ" vert-adv-y="1980" d="M706 1197H538q-17 0-24 9t0 25l120 252q11 24 34 24h168q17 0 24-9t0-25l-120-252q-11-24-34-24zm353-207q13 0 21.5-8t8.5-22V814q0-14-8.5-22t-21.5-8H413V30q0-14-8.5-22T383 0H191q-13 0-21.5 8T161 30v930q0 14 8.5 22t21.5 8h868z"/><glyph glyph-name="uni0454" unicode="є" vert-adv-y="1980" d="M925 330l134-91q25-17 9-40-65-103-175-163.5T644-25q-223 0-370 147T127 493t147 370.5T644 1010q139 0 249-60.5T1068 786q16-23-10-41l-133-90q-22-15-40 8-89 113-233 113-101 0-174-55t-97-149h313q14 0 22-8t8-22V434q0-14-8-22t-22-8H384q25-90 97.5-142.5T652 209q144 0 233 113 18 23 40 8z"/><glyph glyph-name="uni0457" unicode="ї" vert-adv-y="1980" d="M392 1248q-53 0-90.5 38t-37.5 93q0 53 37.5 90.5T392 1507t91-37.5 38-90.5q0-55-37.5-93t-91.5-38zm426 0q-53 0-91 38t-38 93q0 53 38 90.5t91 37.5 91-37.5 38-90.5q0-55-38-93t-91-38zm77-1041h153q14 0 22-8.5t8-21.5V30q0-14-8-22t-22-8H796Q650 0 573 81t-77 229v473H187q-13 0-21.5 8.5T157 813v147q0 14 8.5 22t21.5 8h531q14 0 22-8t8-22V356q0-149 147-149z"/><glyph glyph-name="uni0490" unicode="Ґ" vert-adv-y="1980" d="M881 1502h173q14 0 22-8t8-22v-334q0-14-8-22t-22-8H428V30q0-14-8-22t-22-8H197q-13 0-21.5 8T167 30v1280q0 14 8.5 22t21.5 8h654v132q0 14 8.5 22t21.5 8z"/><glyph glyph-name="uni0491" unicode="ґ" vert-adv-y="1980" d="M867 1104h192q13 0 21.5-8t8.5-22V814q0-14-8.5-22t-21.5-8H413V30q0-14-8.5-22T383 0H191q-13 0-21.5 8T161 30v930q0 14 8.5 22t21.5 8h646v84q0 14 8.5 22t21.5 8z"/><glyph glyph-name="uni1801" unicode="᠁" vert-adv-y="1980" d="M760 517q-48 0-82.5 34T643 633t34.5 82 82.5 34 82-34 34-82q0-49-34-82.5T760 517zm-581-1q-48 0-82 33.5T63 632q0 48 34 82t82 34q49 0 83-34t34-82q0-49-34-82.5T179 516zm291 0q-49 0-83 33.5T353 632q0 48 34 82t83 34q48 0 82-34t34-82q0-49-34-82.5T470 516zm581 0q-48 0-82 33.5T935 632q0 48 34 82t82 34 82-34 34-82q0-49-34-82.5t-82-33.5z"/><glyph glyph-name="Wgrave" unicode="Ẁ" vert-adv-y="1980" d="M492 1571l-120 252q-7 16 0 25t24 9h168q23 0 34-24l120-252q7-16 0-25t-24-9H526q-23 0-34 24zm466-231h181q29 0 24-34L1012 24q-1-11-13-17.5T974 0H746q-31 0-34 24l-97 659-97-659q-3-24-34-24H256q-13 0-25 6.5T218 24L67 1306q-3 34 24 34h181q31 0 34-24l90-975 135 855q4 24 34 24h100q30 0 34-24l135-855 90 975q3 24 34 24z"/><glyph glyph-name="wgrave" unicode="ẁ" vert-adv-y="1980" d="M490 1221l-120 252q-7 16 0 25t24 9h168q23 0 34-24l120-252q7-16 0-25t-24-9H524q-23 0-34 24zm490-231h159q30 0 24-34L989 24q-5-24-36-24H766q-30 0-36 24L615 633 500 24q-6-24-36-24H277q-31 0-36 24L67 956q-6 34 24 34h159q13 0 24-6.5t12-17.5l99-674 134 664q5 24 36 24h120q31 0 36-24l134-664 99 674q1 11 12 17.5t24 6.5z"/><glyph glyph-name="Wacute" unicode="Ẃ" vert-adv-y="1980" d="M706 1547H538q-17 0-24 9t0 25l120 252q11 24 34 24h168q17 0 24-9t0-25l-120-252q-11-24-34-24zm252-207h181q29 0 24-34L1012 24q-1-11-13-17.5T974 0H746q-31 0-34 24l-97 659-97-659q-3-24-34-24H256q-13 0-25 6.5T218 24L67 1306q-3 34 24 34h181q31 0 34-24l90-975 135 855q4 24 34 24h100q30 0 34-24l135-855 90 975q3 24 34 24z"/><glyph glyph-name="wacute" unicode="ẃ" vert-adv-y="1980" d="M704 1197H536q-17 0-24 9t0 25l120 252q11 24 34 24h168q17 0 24-9t0-25l-120-252q-11-24-34-24zm276-207h159q30 0 24-34L989 24q-5-24-36-24H766q-30 0-36 24L615 633 500 24q-6-24-36-24H277q-31 0-36 24L67 956q-6 34 24 34h159q13 0 24-6.5t12-17.5l99-674 134 664q5 24 36 24h120q31 0 36-24l134-664 99 674q1 11 12 17.5t24 6.5z"/><glyph glyph-name="Wdieresis" unicode="Ẅ" vert-adv-y="1980" d="M402 1598q-53 0-90.5 38t-37.5 93q0 53 37.5 90.5T402 1857t91-37.5 38-90.5q0-55-37.5-93t-91.5-38zm426 0q-53 0-91 38t-38 93q0 53 38 90.5t91 37.5 91-37.5 38-90.5q0-55-38-93t-91-38zm130-258h181q29 0 24-34L1012 24q-1-11-13-17.5T974 0H746q-31 0-34 24l-97 659-97-659q-3-24-34-24H256q-13 0-25 6.5T218 24L67 1306q-3 34 24 34h181q31 0 34-24l90-975 135 855q4 24 34 24h100q30 0 34-24l135-855 90 975q3 24 34 24z"/><glyph glyph-name="wdieresis" unicode="ẅ" vert-adv-y="1980" d="M400 1248q-53 0-90.5 38t-37.5 93q0 53 37.5 90.5T400 1507t91-37.5 38-90.5q0-55-37.5-93t-91.5-38zm426 0q-53 0-91 38t-38 93q0 53 38 90.5t91 37.5 91-37.5 38-90.5q0-55-38-93t-91-38zm154-258h159q30 0 24-34L989 24q-5-24-36-24H766q-30 0-36 24L615 633 500 24q-6-24-36-24H277q-31 0-36 24L67 956q-6 34 24 34h159q13 0 24-6.5t12-17.5l99-674 134 664q5 24 36 24h120q31 0 36-24l134-664 99 674q1 11 12 17.5t24 6.5z"/><glyph glyph-name="uni1E9E" unicode="ẞ" vert-adv-y="1980" d="M1099 1304L755 823q209-33 322-145.5T1190 375q0-185-107.5-293T770-26q-367 0-367 363 0 31 29 31h158q28 0 31-29 12-135 150-135 158 0 158 179 0 134-95 191t-296 57q-30 0-30 30v173l209 274H498q-95 0-131-42t-36-147V30q0-14-8.5-22T301 0H100Q86 0 78 8t-8 22v908q0 218 94 310t315 92h601q18 0 23.5-10.5t-4.5-25.5z"/><glyph glyph-name="Ygrave" unicode="Ỳ" vert-adv-y="1980" d="M492 1571l-120 252q-7 16 0 25t24 9h168q23 0 34-24l120-252q7-16 0-25t-24-9H526q-23 0-34 24zm437-231h212q18 0 23.5-10t-3.5-26L746 518V30q0-14-8-22t-22-8H514q-14 0-22 8t-8 22v492L69 1304q-9 16-3.5 26t23.5 10h213q25 0 36-20l277-553 278 553q10 20 36 20z"/><glyph glyph-name="ygrave" unicode="ỳ" vert-adv-y="1980" d="M694 1197H526q-23 0-34 24l-120 252q-7 16 0 25t24 9h168q23 0 34-24l120-252q7-16 0-25t-24-9zm217-207h192q17 0 24-9t0-25L603-356q-9-24-36-24H375q-17 0-24 9t0 25L490-3 103 956q-7 16 0 25t24 9h192q27 0 36-24l260-681 260 681q9 24 36 24z"/><glyph glyph-name="endash" unicode="–" vert-adv-y="1980" d="M145 759h940q13 0 21.5-8.5t8.5-21.5V582q0-14-8.5-22t-21.5-8H145q-13 0-21.5 8t-8.5 22v147q0 13 8.5 21.5T145 759z"/><glyph glyph-name="emdash" unicode="—" vert-adv-y="1980" d="M145 759h940q13 0 21.5-8.5t8.5-21.5V582q0-14-8.5-22t-21.5-8H145q-13 0-21.5 8t-8.5 22v147q0 13 8.5 21.5T145 759z"/><glyph glyph-name="uni2016" unicode="‖" vert-adv-y="1980" d="M265-350v1920q0 14 8.5 22t21.5 8h201q14 0 22-8t8-22V-350q0-14-8-22t-22-8H295q-13 0-21.5 8t-8.5 22zm439 0v1920q0 14 8 22t22 8h201q13 0 21.5-8t8.5-22V-350q0-14-8.5-22t-21.5-8H734q-14 0-22 8t-8 22z"/><glyph glyph-name="underscoredbl" unicode="‗" vert-adv-y="1980" d="M145 0h940q13 0 21.5-8t8.5-22v-147q0-13-8.5-21.5T1085-207H145q-13 0-21.5 8.5T115-177v147q0 14 8.5 22T145 0zm0-394h940q13 0 21.5-8t8.5-22v-146q0-14-8.5-22t-21.5-8H145q-13 0-21.5 8t-8.5 22v146q0 14 8.5 22t21.5 8z"/><glyph glyph-name="quoteleft" unicode="‘" vert-adv-y="1980" d="M847 798H393q-13 0-21.5 8t-8.5 22v87q0 294 39 463 6 22 36 22h139q31 0 29-32-18-185-15-358h256q13 0 21.5-8t8.5-22V828q0-14-8.5-22t-21.5-8z"/><glyph glyph-name="quoteright" unicode="’" vert-adv-y="1980" d="M383 1400h454q13 0 21.5-8t8.5-22v-87q0-294-39-463-6-22-36-22H653q-31 0-29 32 18 185 15 358H383q-13 0-21.5 8t-8.5 22v152q0 14 8.5 22t21.5 8z"/><glyph glyph-name="quotesinglbase" unicode="‚" vert-adv-y="1980" d="M383 212h454q13 0 21.5-8t8.5-22V95q0-294-39-463-6-22-36-22H653q-31 0-29 32 18 185 15 358H383q-13 0-21.5 8T353 30v152q0 14 8.5 22t21.5 8z"/><glyph glyph-name="quotedblleft" unicode="“" vert-adv-y="1980" d="M148 1400h139q32 0 29-32-17-203-15-348h205q14 0 22-8t8-22V838q0-14-8-22t-22-8H104q-14 0-22 8t-8 22v87q0 284 39 453 4 22 35 22zm620 0h139q32 0 29-32-17-203-15-348h206q13 0 21.5-8t8.5-22V838q0-14-8.5-22t-21.5-8H724q-14 0-22 8t-8 22v87q0 284 39 453 4 22 35 22z"/><glyph glyph-name="quotedblright" unicode="”" vert-adv-y="1980" d="M462 808H323q-32 0-29 32 17 203 15 348H104q-14 0-22 8t-8 22v152q0 14 8 22t22 8h402q14 0 22-8t8-22v-87q0-284-39-453-4-22-35-22zm620 0H943q-32 0-29 32 17 203 15 348H724q-14 0-22 8t-8 22v152q0 14 8 22t22 8h403q13 0 21.5-8t8.5-22v-87q0-277-39-453-6-22-36-22z"/><glyph glyph-name="quotedblbase" unicode="„" vert-adv-y="1980" d="M462-380H323q-32 0-29 32 17 203 15 348H104Q90 0 82 8t-8 22v152q0 14 8 22t22 8h402q14 0 22-8t8-22V95q0-284-39-453-4-22-35-22zm620 0H943q-32 0-29 32 17 203 15 348H724q-14 0-22 8t-8 22v152q0 14 8 22t22 8h403q13 0 21.5-8t8.5-22V95q0-277-39-453-6-22-36-22z"/><glyph glyph-name="dagger" unicode="†" vert-adv-y="1980" d="M615 1258q-62 0-105 43.5T467 1407q0 61 43.5 104.5T615 1555q62 0 105.5-43t43.5-105-43.5-105.5T615 1258zM303 953q-62 0-105 43.5T155 1102t43.5 105 104.5 43 104.5-43 43.5-105-43-105.5T303 953zm624 0q-62 0-105 43.5T779 1102t43.5 105 104.5 43q62 0 105.5-43.5T1076 1102q0-62-43.5-105.5T927 953zM619-20h-8q-14 0-17 20L457 841l158 192 158-192L636 0q-3-20-17-20z"/><glyph glyph-name="daggerdbl" unicode="‡" vert-adv-y="1980" d="M615 1258q-62 0-105 43.5T467 1407q0 61 43.5 104.5T615 1555q62 0 105.5-43t43.5-105-43.5-105.5T615 1258zM303 953q-62 0-105 43.5T155 1102t43.5 105 104.5 43 104.5-43 43.5-105-43-105.5T303 953zm624 0q-62 0-105 43.5T779 1102t43.5 105 104.5 43q62 0 105.5-43.5T1076 1102q0-62-43.5-105.5T927 953zM773 841L615 649 457 841l158 192zM303 433q-61 0-104.5 43.5T155 581q0 62 43 105.5T303 730t105-43.5T451 581q0-61-43.5-104.5T303 433zm624 0q-61 0-104.5 43.5T779 581q0 62 43 105.5T927 730t105.5-43.5T1076 581q0-61-43.5-104.5T927 433zM615 127q-61 0-104.5 43.5T467 275q0 62 43 105.5T615 424t105.5-43.5T764 275t-43.5-105T615 127z"/><glyph glyph-name="bullet" unicode="•" vert-adv-y="1980" d="M615 360q-113 0-194.5 81T339 636t81.5 195T615 912q114 0 195-81t81-195-81-195-195-81z"/><glyph glyph-name="ellipsis" unicode="…" vert-adv-y="1980" d="M197-28q-68 0-115.5 47.5T34 135q0 67 48 115t115 48 115-48 48-115q0-68-47.5-115.5T197-28zm417 0q-68 0-115.5 47.5T451 135q0 67 47.5 115T614 298t115.5-48T777 135q0-68-47.5-115.5T614-28zm419 0q-68 0-115.5 47.5T870 135q0 67 48 115t115 48 115-48 48-115q0-68-47.5-115.5T1033-28z"/><glyph glyph-name="perthousand" unicode="‰" vert-adv-y="1980" d="M308 1482q210 0 210-279 0-280-210-280-207 0-207 280 0 279 207 279zm0-166q-33 0-44-27t-11-86q0-60 11-87.5t44-27.5q35 0 46.5 27.5T366 1203t-11.5 86.5T308 1316zm468-85l84-67q22-18 6-42L234 177q-15-23-38-6l-83 68q-21 18-6 42l631 944q16 25 38 6zm146-758q209 0 209-278 0-281-209-281-84 0-133 48-49-48-132-48-209 0-209 281 0 278 209 278 83 0 132-46 49 46 133 46zM657 80q34 0 45.5 27.5T714 195q0 59-11.5 86T657 308t-45.5-27-11.5-86q0-60 11.5-87.5T657 80zm265 0q34 0 45.5 27.5T979 195t-11.5 86.5T922 308t-45-27-11-86q0-60 11-87.5T922 80z"/><glyph glyph-name="minute" unicode="′" vert-adv-y="1980" d="M631 776H480q-14 0-22 8.5t-5 21.5l115 504q7 30 31 30h150q14 0 22-8.5t5-21.5L661 806q-7-30-30-30z"/><glyph glyph-name="second" unicode="″" vert-adv-y="1980" d="M462 776H311q-14 0-22 8.5t-5 21.5l116 504q7 30 31 30h150q14 0 22-8.5t5-21.5L492 806q-7-30-30-30zm339 0H650q-14 0-22 8.5t-5 21.5l116 504q7 30 31 30h150q14 0 22-8.5t5-21.5L831 806q-7-30-30-30z"/><glyph glyph-name="uni2034" unicode="‴" vert-adv-y="1980" d="M295 776H144q-14 0-22 8.5t-5 21.5l115 504q7 30 31 30h150q14 0 22-8.5t5-21.5L325 806q-7-30-30-30zm336 0H480q-14 0-22 8.5t-5 21.5l115 504q7 30 31 30h150q14 0 22-8.5t5-21.5L661 806q-7-30-30-30zm335 0H815q-14 0-21.5 8.5T789 806l115 504q7 30 31 30h150q14 0 22-8.5t5-21.5L996 806q-7-30-30-30z"/><glyph glyph-name="guilsinglleft" unicode="‹" vert-adv-y="1980" d="M869 944L613 562l256-382q10-16 4-26t-24-10H651q-25 0-36 20L361 542q-14 20 0 40l254 378q11 20 36 20h198q18 0 24-10t-4-26z"/><glyph glyph-name="guilsinglright" unicode="›" vert-adv-y="1980" d="M617 562L361 944q-10 16-4 26t24 10h198q25 0 36-20l254-378q14-20 0-40L615 164q-11-20-36-20H381q-18 0-24 10t4 26z"/><glyph glyph-name="uni203B" unicode="※" vert-adv-y="1980" d="M616 980q-49 0-83 34.5t-34 83.5q0 48 34.5 82t82.5 34 82-34.5 34-81.5q0-49-34-83.5T616 980zm437-19L749 657l304-304q21-21 0-42l-91-92q-21-21-42 0L615 523 311 219q-21-21-43 0l-91 92q-21 21 0 42l304 304-304 304q-21 21 0 43l91 91q22 21 43 0l304-304 305 304q21 21 42 0l91-91q21-22 0-43zM292 656q0-47-34.5-81.5T175 540t-82.5 34.5T58 656q0 49 34.5 83.5T175 774t82.5-34.5T292 656zm764 118q48 0 82-34.5t34-83.5q0-47-34.5-81.5T1056 540q-49 0-83.5 34.5T938 656q0 49 34.5 83.5T1056 774zM616 334q48 0 82-34.5t34-82.5-34-82.5-82-34.5q-49 0-83 34.5T499 217t34 82.5 83 34.5z"/><glyph glyph-name="exclamdbl" unicode="‼" vert-adv-y="1980" d="M431 519H317q-14 0-24 8.5T282 550l-67 626q-9 83 37.5 134t120.5 51 120.5-51 37.5-134l-65-626q-1-14-11-22.5t-24-8.5zm483 0H800q-14 0-24.5 8.5T764 550l-66 626q-9 83 37.5 134t120.5 51 120.5-51 37.5-134l-65-626q-3-31-35-31zM374-26q-78 0-133 55t-55 132q0 78 55 133t133 55q77 0 132-55t55-133q0-77-55-132T374-26zm483 0q-78 0-133 55t-55 132q0 78 55 133t133 55q77 0 132-55t55-133q0-77-55-132T857-26z"/><glyph glyph-name="uni203D" unicode="‽" vert-adv-y="1980" d="M619 1361q219 0 347.5-100.5T1095 972q0-71-20-124.5t-52-86-70.5-58-77.5-46-72-42.5-54.5-56.5T725 478q-1-30-31-30H509q-30 0-30 32v489q0 13 8.5 21.5T509 999h138q13 0 21.5-8.5T677 969V786q5 2 29 14t29.5 15 25.5 14 26 16.5 20.5 17.5 19.5 21.5 12.5 23.5 10 29 2.5 33q0 76-56.5 119.5T623 1133q-242 0-250-200-1-28-34-28H164q-29 0-29 32 0 205 128 314.5T619 1361zM606 349q77 0 132-55t55-133q0-77-55-132T606-26 474 29t-55 132q0 78 55 133t132 55z"/><glyph glyph-name="uni203E" unicode="‾" vert-adv-y="1980" d="M145 1599h940q13 0 21.5-8.5t8.5-21.5v-146q0-13-8.5-21.5t-21.5-8.5H145q-13 0-21.5 8.5T115 1423v146q0 13 8.5 21.5t21.5 8.5z"/><glyph glyph-name="uni2042" unicode="⁂" vert-adv-y="1980" d="M487 749l-18 13q-22 15-6 35l105 138-166 45q-18 5-15 29l3 20q1 12 10.5 17t21.5 1l161-50-4 169q0 10 6.5 17t17.5 7h24q23 0 23-24l-2-169 162 50q11 4 20-1t11-17l4-20q4-23-15-29l-167-45 106-138q15-21-6-35l-19-13q-19-13-32 7l-96 138-96-138q-15-20-33-7zM201 266l-18 13q-22 15-6 35l105 138-166 45q-18 5-15 29l3 20q1 12 10.5 17t21.5 1l161-50-4 169q0 11 6.5 17.5T317 707h24q23 0 23-24l-2-169 162 50q11 4 20-1t11-17l4-20q4-23-15-29l-167-45 106-138q15-21-6-35l-19-13q-18-13-32 7l-96 138-96-138q-14-20-33-7zm571 0l-19 13q-21 14-6 35l105 138-166 45q-19 6-15 29l4 20q2 12 11 17t20 1l162-50-2 169q0 24 23 24h24q11 0 17.5-6.5T937 683l-5-169 162 50q12 4 21.5-1t10.5-17l3-20q3-24-15-29l-166-45 105-138q16-20-6-35l-18-13q-19-13-33 7l-96 138-96-138q-14-20-32-7z"/><glyph glyph-name="fraction" unicode="⁄" vert-adv-y="1980" d="M876 1400h206q17 0 23.5-10t-1.5-26L392 24Q380 0 356 0H151q-18 0-25 9t1 25l715 1344q13 22 34 22z"/><glyph glyph-name="uni2045" unicode="⁅" vert-adv-y="1980" d="M918 1325H544V760h374q14 0 22-8t8-22V583q0-13-8-21.5t-22-8.5H544V-12h374q14 0 22-8t8-22v-146q0-14-8-22t-22-8H313q-13 0-21.5 8t-8.5 22v1690q0 14 8.5 22t21.5 8h605q14 0 22-8t8-22v-147q0-13-8-21.5t-22-8.5z"/><glyph glyph-name="uni2046" unicode="⁆" vert-adv-y="1980" d="M313 1532h605q14 0 22-8t8-22V-188q0-14-8-22t-22-8H313q-13 0-21.5 8t-8.5 22v146q0 14 8.5 22t21.5 8h373v565H313q-13 0-21.5 8.5T283 583v147q0 14 8.5 22t21.5 8h373v565H313q-13 0-21.5 8.5T283 1355v147q0 14 8.5 22t21.5 8z"/><glyph glyph-name="uni2057" unicode="⁗" vert-adv-y="1980" d="M223 776H72q-14 0-22 8.5T45 806l116 504q7 30 31 30h150q14 0 22-8.5t5-21.5L253 806q-7-30-30-30zm272 0H344q-14 0-21.5 8.5T318 806l115 504q7 30 31 30h150q14 0 22-8.5t5-21.5L525 806q-7-30-30-30zm273 0H617q-14 0-22 8.5t-5 21.5l115 504q7 30 31 30h150q14 0 22-8.5t5-21.5L798 806q-7-30-30-30zm272 0H889q-14 0-22 8.5t-5 21.5l116 504q7 30 31 30h150q14 0 22-8.5t5-21.5l-116-504q-7-30-30-30z"/></font>
</defs>
</svg>
